<?xml version="1.0" standalone="no"?>
<!DOCTYPE svg PUBLIC "-//W3C//DTD SVG 1.1//EN" "http://www.w3.org/Graphics/SVG/1.1/DTD/svg11.dtd" >
<svg xmlns="http://www.w3.org/2000/svg" xmlns:xlink="http://www.w3.org/1999/xlink" version="1.1">
<metadata>
Created by FontForge 20170731 at Mon May 15 16:25:05 2017
 By Aleksey,,,
Copyright 2010, 2012, 2014 Adobe Systems Incorporated (http://www.adobe.com/), with Reserved Font Name `Source'.
</metadata>
<defs>
<font id="SourceSansPro-Regular" horiz-adv-x="0" >
  <font-face 
    font-family="Source Sans Pro"
    font-weight="400"
    font-stretch="normal"
    units-per-em="1000"
    panose-1="2 11 5 3 3 4 3 2 2 4"
    ascent="750"
    descent="-250"
    x-height="486"
    cap-height="656"
    bbox="-454 -292 2159 968"
    underline-thickness="50"
    underline-position="-150"
    unicode-range="U+0020-1F16B"
  />
<missing-glyph horiz-adv-x="653" 
d="M89 0v660h476v-660h-476zM197 58h257l-73 132l-52 103h-4l-54 -103zM325 387h4l49 94l66 119h-235l66 -119zM154 110l127 230l-127 232v-462zM498 110v462l-126 -232z" />
    <glyph glyph-name="f_f" unicode="ff" horiz-adv-x="577" 
d="M381 0v419h-203v-419h-82v419h-66v62l66 5v64q0 76 37.5 120t113.5 44q24 0 47.5 -5t41.5 -13l-17 -62q-30 13 -65 13q-36 0 -56 -25.5t-20 -73.5v-62h203v77q0 75 34.5 118t107.5 43q23 0 43.5 -4.5t37.5 -11.5l-18 -63q-27 12 -55 12q-68 0 -68 -94v-77h103v-67h-103
v-419h-82z" />
    <glyph glyph-name="f_t" unicode="ft" horiz-adv-x="594" 
d="M96 0v419h-66v62l66 5v77q0 75 34.5 118t107.5 43q23 0 43.5 -4.5t37.5 -11.5l-18 -63q-27 12 -55 12q-68 0 -68 -94v-77h178l10 136h68v-136h132v-67h-132v-270q0 -45 17 -69.5t59 -24.5q13 0 28 4t27 9l16 -62q-20 -7 -43.5 -12.5t-46.5 -5.5q-39 0 -65.5 12t-43 33
t-23.5 51t-7 66v269h-174v-419h-82z" />
    <glyph glyph-name="f_f_t" unicode="fft" horiz-adv-x="879" 
d="M96 0v419h-66v62l66 5v64q0 76 37.5 120t113.5 44q24 0 47.5 -5t41.5 -13l-17 -62q-30 13 -65 13q-36 0 -56 -25.5t-20 -73.5v-62h203v77q0 75 34.5 118t107.5 43q23 0 43.5 -4.5t37.5 -11.5l-18 -63q-27 12 -55 12q-68 0 -68 -94v-77h178l10 136h68v-136h132v-67h-132
v-270q0 -45 17 -69.5t59 -24.5q13 0 28 4t27 9l16 -62q-20 -7 -43.5 -12.5t-46.5 -5.5q-39 0 -65.5 12t-43 33t-23.5 51t-7 66v269h-174v-419h-82v419h-203v-419h-82z" />
    <glyph glyph-name=".notdef" horiz-adv-x="653" 
d="M89 0v660h476v-660h-476zM197 58h257l-73 132l-52 103h-4l-54 -103zM325 387h4l49 94l66 119h-235l66 -119zM154 110l127 230l-127 232v-462zM498 110v462l-126 -232z" />
    <glyph glyph-name=".null" 
 />
    <glyph glyph-name="nonmarkingreturn" horiz-adv-x="333" 
 />
    <glyph glyph-name="space" unicode=" " horiz-adv-x="200" 
 />
    <glyph glyph-name="exclam" unicode="!" horiz-adv-x="289" 
d="M116 198l-11 378l-2 94h83l-2 -94l-11 -378h-57zM145 -12q-25 0 -42.5 17.5t-17.5 44.5q0 29 17.5 46.5t42.5 17.5q24 0 41.5 -17.5t17.5 -46.5q0 -27 -17.5 -44.5t-41.5 -17.5z" />
    <glyph glyph-name="quotedbl" unicode="&#x22;" horiz-adv-x="425" 
d="M99 431l-16 167l-3 92h88l-3 -92l-16 -167h-50zM275 431l-16 167l-3 92h88l-3 -92l-16 -167h-50z" />
    <glyph glyph-name="numbersign" unicode="#" horiz-adv-x="497" 
d="M90 0l25 204h-80v57h87l18 148h-85v58h92l23 183h53l-23 -183h133l24 183h53l-24 -183h81v-58h-87l-18 -148h85v-57h-92l-25 -204h-53l24 204h-132l-25 -204h-54zM176 261h132l18 148h-132z" />
    <glyph glyph-name="dollar" unicode="$" horiz-adv-x="497" 
d="M222 -110v99q-48 5 -93 26.5t-77 50.5l38 57q32 -28 70.5 -47.5t84.5 -19.5q56 0 83.5 28t27.5 75q0 40 -20.5 66.5t-51.5 46t-67.5 36.5t-67.5 39t-51.5 53.5t-20.5 80.5q0 67 39.5 111.5t105.5 54.5v101h60v-99q48 -5 81.5 -26t60.5 -50l-44 -49q-28 27 -54.5 42
t-67.5 15q-46 0 -73 -26t-27 -70q0 -36 20.5 -59t51.5 -40.5t67.5 -34t67.5 -40t51.5 -58t20.5 -88.5q0 -72 -41.5 -118t-113.5 -56v-101h-60z" />
    <glyph glyph-name="percent" unicode="%" horiz-adv-x="824" 
d="M184 254q-68 0 -108.5 54t-40.5 154q0 99 40.5 152.5t108.5 53.5q67 0 108 -53.5t41 -152.5q0 -100 -41 -154t-108 -54zM184 305q38 0 62 39.5t24 117.5t-24 116.5t-62 38.5q-39 0 -63 -38.5t-24 -116.5t24 -117.5t63 -39.5zM202 -12l362 680h56l-362 -680h-56zM641 -12
q-68 0 -108.5 54t-40.5 154q0 99 40.5 152.5t108.5 53.5q67 0 108 -53.5t41 -152.5q0 -100 -41 -154t-108 -54zM641 39q38 0 62 39.5t24 117.5t-24 116.5t-62 38.5q-39 0 -63 -38.5t-24 -116.5t24 -117.5t63 -39.5z" />
    <glyph glyph-name="ampersand" unicode="&#x26;" horiz-adv-x="609" 
d="M232 -12q-45 0 -81.5 13.5t-63 37.5t-41 57.5t-14.5 73.5q0 33 10.5 60t28.5 50t41.5 42.5t48.5 36.5q-20 41 -31.5 79.5t-11.5 74.5q0 33 11 61t31 49t48 33t62 12q61 0 95 -36t34 -94q0 -32 -13 -59t-34 -50.5t-47.5 -44t-53.5 -40.5q32 -51 75.5 -98t90.5 -86
q30 41 53.5 89t38.5 105h77q-20 -65 -48 -124t-67 -111q34 -23 65 -39t58 -24l-22 -68q-35 10 -73 28.5t-78 46.5q-38 -34 -84.5 -54.5t-104.5 -20.5zM189 514q0 -27 8.5 -56t22.5 -59q22 15 42.5 30.5t36 32t24.5 35t9 40.5q0 29 -14.5 50.5t-47.5 21.5q-37 0 -59 -27
t-22 -68zM241 54q34 0 65 14t60 39q-48 42 -92.5 91.5t-79.5 103.5q-35 -28 -58.5 -58.5t-23.5 -68.5q0 -27 10 -49.5t27.5 -38.5t41 -24.5t50.5 -8.5z" />
    <glyph glyph-name="quotesingle" unicode="'" horiz-adv-x="249" 
d="M99 431l-16 167l-3 92h88l-3 -92l-16 -167h-50z" />
    <glyph glyph-name="parenleft" unicode="(" horiz-adv-x="303" 
d="M214 -176q-62 100 -97 211t-35 243t35 242.5t97 211.5l51 -24q-58 -96 -86.5 -205.5t-28.5 -224.5t28.5 -224.5t86.5 -205.5z" />
    <glyph glyph-name="parenright" unicode=")" horiz-adv-x="303" 
d="M89 -176l-51 24q58 96 86.5 205.5t28.5 224.5t-28.5 224.5t-86.5 205.5l51 24q62 -101 97 -211.5t35 -242.5t-35 -243t-97 -211z" />
    <glyph glyph-name="asterisk" unicode="*" horiz-adv-x="418" 
d="M138 420l-40 29l57 94l-97 40l15 46l102 -25l9 108h49l9 -107l103 24l15 -46l-97 -40l56 -94l-39 -29l-71 86z" />
    <glyph glyph-name="plus" unicode="+" horiz-adv-x="497" 
d="M216 104v195h-182v62h182v195h65v-195h182v-62h-182v-195h-65z" />
    <glyph glyph-name="comma" unicode="," horiz-adv-x="249" 
d="M67 -170l-20 48q43 19 67 50.5t23 71.5q-3 -1 -10 -1q-24 0 -41.5 14.5t-17.5 42.5q0 27 18 42.5t43 15.5q32 0 50.5 -26t18.5 -71q0 -65 -35 -113t-96 -74z" />
    <glyph glyph-name="hyphen" unicode="-" horiz-adv-x="311" 
d="M41 219v63h230v-63h-230z" />
    <glyph glyph-name="period" unicode="." horiz-adv-x="249" 
d="M125 -12q-25 0 -42.5 17.5t-17.5 44.5q0 29 17.5 46.5t42.5 17.5q24 0 41.5 -17.5t17.5 -46.5q0 -27 -17.5 -44.5t-41.5 -17.5z" />
    <glyph glyph-name="slash" unicode="/" horiz-adv-x="350" 
d="M10 -160l267 870h60l-267 -870h-60z" />
    <glyph glyph-name="zero" unicode="0" horiz-adv-x="497" 
d="M249 -12q-97 0 -151 86t-54 247t54 245t151 84q96 0 150 -84t54 -245t-54 -247t-150 -86zM249 54q28 0 50.5 15.5t39 48t25.5 83t9 120.5t-9 120t-25.5 81.5t-39 46.5t-50.5 15t-51 -15t-39.5 -46.5t-25.5 -81.5t-9 -120q0 -140 34.5 -203.5t90.5 -63.5z" />
    <glyph glyph-name="one" unicode="1" horiz-adv-x="497" 
d="M79 0v68h146v470h-116v53q44 8 76.5 19.5t58.5 27.5h63v-570h132v-68h-360z" />
    <glyph glyph-name="two" unicode="2" horiz-adv-x="497" 
d="M40 0v49q72 72 128 130t94 107.5t58 91t20 80.5q0 55 -30 90t-91 35q-40 0 -74 -22.5t-62 -54.5l-47 47q40 44 85 70.5t108 26.5q89 0 140 -51.5t51 -136.5q0 -45 -19.5 -90.5t-54 -94t-82 -101t-104.5 -111.5q26 2 54 4t53 2h185v-71h-412z" />
    <glyph glyph-name="three" unicode="3" horiz-adv-x="497" 
d="M236 -12q-38 0 -69.5 7.5t-57.5 20t-46.5 28.5t-36.5 34l42 54q29 -30 67.5 -53t95.5 -23q58 0 95 31.5t37 85.5q0 28 -10.5 51.5t-34.5 40.5t-63 26t-96 9v63q51 0 85.5 9t56 25t30.5 38t9 47q0 47 -29.5 74t-80.5 27q-40 0 -73.5 -18t-62.5 -47l-44 52q37 35 81.5 57.5
t101.5 22.5q42 0 77 -11t60.5 -31.5t39.5 -50.5t14 -69q0 -58 -32 -95t-84 -57v-4q29 -7 54 -20.5t44 -34t29.5 -47.5t10.5 -60q0 -42 -16.5 -76t-45 -57.5t-66.5 -36t-82 -12.5z" />
    <glyph glyph-name="four" unicode="4" horiz-adv-x="497" 
d="M304 0v176h-287v54l273 408h92v-396h87v-66h-87v-176h-78zM104 242h200v185q0 26 1.5 61.5t3.5 61.5h-4q-12 -23 -25 -45t-27 -45z" />
    <glyph glyph-name="five" unicode="5" horiz-adv-x="497" 
d="M234 -12q-38 0 -69.5 7.5t-57 19.5t-46 27.5t-36.5 32.5l40 54q28 -29 66.5 -51t94.5 -22q29 0 54.5 10.5t44.5 29.5t30 46t11 60q0 66 -37 103t-99 37q-33 0 -56.5 -10t-52.5 -29l-44 28l21 307h319v-71h-247l-17 -189q23 12 46 19t52 7q41 0 77 -12t63 -36.5t42.5 -62
t15.5 -89.5t-18 -92t-48 -67.5t-68.5 -42t-80.5 -14.5z" />
    <glyph glyph-name="six" unicode="6" horiz-adv-x="497" 
d="M268 -12q-47 0 -87 19t-69.5 57.5t-46.5 96t-17 134.5q0 96 20 163.5t54 110t77.5 62t91.5 19.5q52 0 89.5 -19.5t64.5 -48.5l-46 -51q-20 23 -47.5 36.5t-57.5 13.5q-33 0 -63 -14t-53 -46t-37 -83.5t-15 -127.5q30 37 70 58.5t79 21.5q83 0 132.5 -49t49.5 -148
q0 -46 -15 -83.5t-41 -64.5t-60 -42t-73 -15zM268 53q24 0 44 10t35 28.5t23.5 44t8.5 57.5q0 63 -29 99t-89 36q-31 0 -67 -19.5t-66 -64.5q8 -94 43.5 -142.5t96.5 -48.5z" />
    <glyph glyph-name="seven" unicode="7" horiz-adv-x="497" 
d="M177 0q4 90 16 165t33.5 142.5t55 130.5t80.5 129h-318v71h411v-51q-57 -72 -92.5 -138t-56.5 -134.5t-30.5 -145t-13.5 -169.5h-85z" />
    <glyph glyph-name="eight" unicode="8" horiz-adv-x="497" 
d="M250 -12q-45 0 -83.5 13t-66 36.5t-43.5 55.5t-16 70q0 31 10.5 57.5t27 48t38 38t44.5 28.5v4q-35 25 -62 60.5t-27 86.5q0 37 14 67t38 51.5t57 33.5t72 12q42 0 75 -12.5t56.5 -35t36 -54t12.5 -68.5q0 -25 -8.5 -48t-21 -43t-28 -36t-30.5 -27v-4q21 -12 41 -27.5
t35.5 -35t25 -44.5t9.5 -57q0 -36 -15 -67t-42 -54t-65 -36t-84 -13zM295 348q32 29 49.5 61t17.5 67q0 48 -29 80.5t-82 32.5q-45 0 -74 -28t-29 -75q0 -29 12 -49.5t32.5 -36.5t47 -28.5t55.5 -23.5zM252 49q56 0 90.5 31t34.5 81q0 31 -14 53t-38 38.5t-55.5 30
t-65.5 27.5q-38 -26 -63.5 -60.5t-25.5 -78.5q0 -27 10.5 -49t29 -38.5t43.5 -25.5t54 -9z" />
    <glyph glyph-name="nine" unicode="9" horiz-adv-x="497" 
d="M235 310q32 0 67.5 20t66.5 65q-8 94 -44 142t-97 48q-23 0 -43.5 -10t-35.5 -28.5t-23.5 -44.5t-8.5 -57q0 -63 29 -99t89 -36zM205 -12q-51 0 -89.5 19t-64.5 48l46 52q20 -23 47.5 -37t57.5 -14q34 0 64 14t53 46.5t37 84.5t15 129q-30 -38 -70 -60t-80 -22
q-83 0 -132 49t-49 148q0 46 15 83.5t40.5 64.5t60 42t72.5 15q47 0 87.5 -19t70 -57.5t46 -96t16.5 -134.5q0 -96 -20 -163.5t-54 -110t-77.5 -62t-91.5 -19.5z" />
    <glyph glyph-name="colon" unicode=":" horiz-adv-x="249" 
d="M125 349q-25 0 -42.5 17.5t-17.5 44.5q0 29 17.5 46.5t42.5 17.5q24 0 41.5 -17.5t17.5 -46.5q0 -27 -17.5 -44.5t-41.5 -17.5zM125 -12q-25 0 -42.5 17.5t-17.5 44.5q0 29 17.5 46.5t42.5 17.5q24 0 41.5 -17.5t17.5 -46.5q0 -27 -17.5 -44.5t-41.5 -17.5z" />
    <glyph glyph-name="semicolon" unicode=";" horiz-adv-x="249" 
d="M125 349q-25 0 -42.5 17.5t-17.5 44.5q0 29 17.5 46.5t42.5 17.5q24 0 41.5 -17.5t17.5 -46.5q0 -27 -17.5 -44.5t-41.5 -17.5zM67 -170l-20 48q43 19 67 50.5t23 71.5q-3 -1 -10 -1q-24 0 -41.5 14.5t-17.5 42.5q0 27 18 42.5t43 15.5q32 0 50.5 -26t18.5 -71
q0 -65 -35 -113t-96 -74z" />
    <glyph glyph-name="less" unicode="&#x3c;" horiz-adv-x="497" 
d="M463 131l-429 168v66l429 168v-71l-211 -78l-134 -50v-4l134 -50l211 -78v-71z" />
    <glyph glyph-name="equal" unicode="=" horiz-adv-x="497" 
d="M34 406v62h429v-62h-429zM34 193v62h429v-62h-429z" />
    <glyph glyph-name="greater" unicode="&#x3e;" horiz-adv-x="497" 
d="M34 131v71l211 78l134 50v4l-134 50l-211 78v71l429 -168v-66z" />
    <glyph glyph-name="question" unicode="?" horiz-adv-x="425" 
d="M160 198q-6 39 2.5 70.5t23.5 58t34.5 49.5t36.5 45.5t28.5 45.5t11.5 50q0 40 -24.5 68.5t-72.5 28.5q-33 0 -62.5 -15.5t-52.5 -42.5l-47 43q32 36 74.5 59.5t97.5 23.5q76 0 121.5 -42.5t45.5 -117.5q0 -33 -12 -60t-29.5 -51t-37 -47.5t-36 -48.5t-25.5 -53.5
t-5 -63.5h-72zM198 -12q-25 0 -42 17.5t-17 44.5q0 29 17 46.5t42 17.5t42.5 -17.5t17.5 -46.5q0 -27 -17.5 -44.5t-42.5 -17.5z" />
    <glyph glyph-name="at" unicode="@" horiz-adv-x="847" 
d="M403 -155q-74 0 -138 23t-111.5 68.5t-75 112.5t-27.5 154q0 100 33.5 182t91 140t133 89.5t159.5 31.5q76 0 136.5 -24t103 -67.5t65.5 -104.5t23 -135q0 -66 -18.5 -115.5t-47.5 -83t-64.5 -50.5t-69.5 -17q-41 0 -69.5 19t-33.5 57h-2q-25 -29 -57 -48.5t-65 -19.5
q-51 0 -85.5 36t-34.5 105q0 40 13.5 81.5t38.5 75t60.5 54.5t79.5 21q26 0 46 -11.5t34 -36.5h2l11 40h55l-39 -200q-30 -117 54 -117q24 0 47.5 14t43 40.5t31.5 65t12 87.5q0 60 -17.5 111.5t-52.5 88.5t-87 58t-120 21q-67 0 -130 -27.5t-112 -77.5t-78.5 -121
t-29.5 -159q0 -73 22.5 -130t62.5 -96t94.5 -59.5t118.5 -20.5q46 0 87 12.5t75 32.5l22 -49q-85 -51 -190 -51zM385 113q21 0 43.5 14t48.5 45l29 159q-14 23 -29 32.5t-35 9.5q-30 0 -53.5 -16t-40 -41t-25 -55t-8.5 -58q0 -48 20 -69t50 -21z" />
    <glyph glyph-name="A" unicode="A" horiz-adv-x="544" 
d="M203 367l-31 -100h197l-31 100q-18 55 -34 109.5t-32 111.5h-4q-15 -57 -31 -111.5t-34 -109.5zM3 0l222 656h94l222 -656h-89l-62 200h-239l-63 -200h-85z" />
    <glyph glyph-name="B" unicode="B" horiz-adv-x="588" 
d="M90 0v656h195q50 0 91.5 -9t71 -28t46 -49.5t16.5 -73.5q0 -49 -24.5 -88.5t-71.5 -54.5v-4q60 -11 97 -50t37 -107q0 -48 -18 -84t-51 -60t-79 -36t-101 -12h-209zM173 377h97q84 0 121 29t37 79q0 57 -38.5 81t-115.5 24h-101v-213zM173 66h114q85 0 132 31.5t47 97.5
q0 61 -46 89.5t-133 28.5h-114v-247z" />
    <glyph glyph-name="C" unicode="C" horiz-adv-x="571" 
d="M338 -12q-62 0 -114 23t-90.5 66.5t-60 107t-21.5 143.5q0 79 22 142t61 107t92 67.5t116 23.5q60 0 105.5 -24.5t74.5 -56.5l-45 -54q-26 28 -59 45t-75 17q-47 0 -85 -18.5t-65 -53t-41.5 -83.5t-14.5 -110q0 -62 14.5 -111.5t40.5 -84.5t63.5 -54t84.5 -19
q48 0 84 19.5t68 54.5l46 -52q-39 -45 -88 -70t-113 -25z" />
    <glyph glyph-name="D" unicode="D" horiz-adv-x="615" 
d="M90 0v656h164q152 0 231 -84t79 -241q0 -78 -20 -139.5t-59 -104t-96 -65t-131 -22.5h-168zM173 68h75q115 0 172.5 69t57.5 194t-57.5 191t-172.5 66h-75v-520z" />
    <glyph glyph-name="E" unicode="E" horiz-adv-x="527" 
d="M90 0v656h378v-70h-295v-206h249v-71h-249v-238h305v-71h-388z" />
    <glyph glyph-name="F" unicode="F" horiz-adv-x="494" 
d="M90 0v656h378v-70h-295v-222h250v-70h-250v-294h-83z" />
    <glyph glyph-name="G" unicode="G" horiz-adv-x="617" 
d="M348 -12q-65 0 -119.5 23t-93.5 66.5t-61 107t-22 143.5q0 79 22.5 142t62.5 107t95.5 67.5t120.5 23.5q34 0 62.5 -7t52 -18.5t42 -26t32.5 -29.5l-46 -54q-25 26 -58 44t-83 18t-90 -18.5t-68 -53t-43.5 -83.5t-15.5 -110q0 -62 14.5 -111.5t42 -84.5t68 -54t93.5 -19
q35 0 66.5 10.5t51.5 28.5v171h-139v69h215v-276q-32 -33 -84 -54.5t-118 -21.5z" />
    <glyph glyph-name="H" unicode="H" horiz-adv-x="652" 
d="M90 0v656h83v-275h305v275h84v-656h-84v309h-305v-309h-83z" />
    <glyph glyph-name="I" unicode="I" horiz-adv-x="263" 
d="M90 0v656h83v-656h-83z" />
    <glyph glyph-name="J" unicode="J" horiz-adv-x="480" 
d="M212 -12q-123 0 -181 105l60 42q22 -39 50 -56.5t63 -17.5q53 0 79 32.5t26 107.5v455h84v-463q0 -42 -10.5 -79.5t-32 -65.5t-56 -44t-82.5 -16z" />
    <glyph glyph-name="K" unicode="K" horiz-adv-x="579" 
d="M90 0v656h83v-329h3l273 329h94l-205 -250l237 -406h-93l-196 341l-113 -133v-208h-83z" />
    <glyph glyph-name="L" unicode="L" horiz-adv-x="486" 
d="M90 0v656h83v-585h287v-71h-370z" />
    <glyph glyph-name="M" unicode="M" horiz-adv-x="727" 
d="M90 0v656h100l126 -350q12 -34 23.5 -68.5t23.5 -68.5h4q12 34 22.5 68.5t22.5 68.5l124 350h101v-656h-78v361q0 44 4 97t7 97h-4l-52 -149l-124 -340h-55l-124 340l-52 149h-4q3 -44 6.5 -97t3.5 -97v-361h-75z" />
    <glyph glyph-name="N" unicode="N" horiz-adv-x="647" 
d="M90 0v656h86l237 -412l71 -136h4q-3 50 -6.5 103.5t-3.5 105.5v339h79v-656h-86l-238 413l-71 135h-4q4 -50 7.5 -101.5t3.5 -103.5v-343h-79z" />
    <glyph glyph-name="O" unicode="O" horiz-adv-x="664" 
d="M332 -12q-62 0 -113.5 24t-88.5 68.5t-57.5 108t-20.5 142.5t20.5 141.5t57.5 106t88.5 66.5t113.5 23t113.5 -23.5t89 -67t58 -106t20.5 -140.5q0 -79 -20.5 -142.5t-58 -108t-89 -68.5t-113.5 -24zM332 61q44 0 79.5 19t61 54.5t39.5 85t14 111.5q0 61 -14 110
t-39.5 83t-61 52.5t-79.5 18.5t-79.5 -18.5t-61 -52.5t-39.5 -83t-14 -110q0 -62 14 -111.5t39.5 -85t61 -54.5t79.5 -19z" />
    <glyph glyph-name="P" unicode="P" horiz-adv-x="566" 
d="M90 0v656h187q55 0 100.5 -10t77.5 -32.5t50 -59.5t18 -91q0 -52 -17.5 -90t-49.5 -63t-76.5 -37.5t-98.5 -12.5h-108v-260h-83zM173 328h98q86 0 127.5 32.5t41.5 102.5q0 71 -43.5 98.5t-129.5 27.5h-94v-261z" />
    <glyph glyph-name="Q" unicode="Q" horiz-adv-x="664" 
d="M332 57q44 0 79.5 19t61 55t39.5 86.5t14 113.5q0 61 -14 110t-39.5 83t-61 52.5t-79.5 18.5t-79.5 -18.5t-61 -52.5t-39.5 -83t-14 -110q0 -63 14 -113.5t39.5 -86.5t61 -55t79.5 -19zM533 -165q-45 0 -83.5 11.5t-69 32.5t-53 49.5t-36.5 62.5q-54 7 -98 34t-75.5 71
t-48.5 103.5t-17 131.5q0 79 20.5 141.5t57.5 106t88.5 66.5t113.5 23t113.5 -23.5t89 -67t58 -106t20.5 -140.5q0 -71 -16.5 -129.5t-47 -102t-73.5 -71t-95 -36.5q23 -44 65 -65.5t96 -21.5q22 0 38.5 2.5t30.5 6.5l16 -64q-15 -6 -40 -10.5t-54 -4.5z" />
    <glyph glyph-name="R" unicode="R" horiz-adv-x="569" 
d="M90 0v656h205q50 0 92.5 -9.5t73 -31.5t47.5 -57t17 -86q0 -77 -40 -123t-108 -63l167 -286h-94l-158 277h-119v-277h-83zM173 345h110q77 0 118 31.5t41 95.5q0 65 -41 91t-118 26h-110v-244z" />
    <glyph glyph-name="S" unicode="S" horiz-adv-x="534" 
d="M272 -12q-69 0 -128 26t-102 71l50 58q35 -37 82.5 -59.5t98.5 -22.5q65 0 101 29.5t36 77.5q0 25 -8.5 42.5t-23 30t-34.5 22.5t-43 21l-94 41q-23 10 -47 24t-43 34t-31 47.5t-12 63.5q0 37 15.5 69t43 55.5t65 36.5t82.5 13q59 0 109 -22.5t85 -58.5l-45 -54
q-30 29 -66.5 45.5t-82.5 16.5q-55 0 -88.5 -25.5t-33.5 -70.5q0 -24 9.5 -40.5t25.5 -29t35 -22t39 -17.5l93 -40q28 -12 53 -27.5t43 -36t28.5 -48t10.5 -63.5q0 -39 -15.5 -73t-44.5 -59.5t-70 -40t-93 -14.5z" />
    <glyph glyph-name="T" unicode="T" horiz-adv-x="536" 
d="M226 0v586h-198v70h480v-70h-198v-586h-84z" />
    <glyph glyph-name="U" unicode="U" horiz-adv-x="645" 
d="M323 -12q-50 0 -93.5 14.5t-75 48t-49.5 87.5t-18 133v385h83v-387q0 -59 12 -99t32.5 -64t48.5 -34.5t60 -10.5q33 0 61 10.5t49 34.5t33 64t12 99v387h80v-385q0 -79 -18 -133t-49.5 -87.5t-74.5 -48t-93 -14.5z" />
    <glyph glyph-name="V" unicode="V" horiz-adv-x="515" 
d="M210 0l-210 656h89l105 -354q18 -59 31.5 -109t32.5 -108h4q18 58 32 108t31 109l105 354h85l-208 -656h-97z" />
    <glyph glyph-name="W" unicode="W" horiz-adv-x="786" 
d="M162 0l-139 656h86l69 -357q9 -54 19 -106t19 -106h4q11 54 23 106.5t23 105.5l91 357h76l91 -357q12 -52 24 -105t24 -107h4q9 54 18 106.5t19 105.5l69 357h80l-136 -656h-100l-99 395q-9 38 -16.5 74.5t-15.5 74.5h-4q-8 -38 -16.5 -74.5t-16.5 -74.5l-97 -395h-99z
" />
    <glyph glyph-name="X" unicode="X" horiz-adv-x="513" 
d="M15 0l191 339l-178 317h92l89 -168q13 -23 24.5 -44.5t26.5 -50.5h4q14 29 24.5 50.5t22.5 44.5l87 168h88l-179 -321l191 -335h-92l-96 177q-13 24 -26.5 49.5t-29.5 55.5h-4q-14 -30 -27 -55.5t-25 -49.5l-95 -177h-88z" />
    <glyph glyph-name="Y" unicode="Y" horiz-adv-x="476" 
d="M196 0v254l-197 402h89l85 -185q16 -36 31 -71t32 -72h4q17 37 34 72t32 71l84 185h87l-197 -402v-254h-84z" />
    <glyph glyph-name="Z" unicode="Z" horiz-adv-x="539" 
d="M45 0v50l345 536h-314v70h418v-49l-346 -536h349v-71h-452z" />
    <glyph glyph-name="bracketleft" unicode="[" horiz-adv-x="303" 
d="M94 -152v860h179v-47h-117v-766h117v-47h-179z" />
    <glyph glyph-name="backslash" unicode="\" horiz-adv-x="350" 
d="M281 -160l-267 870h59l267 -870h-59z" />
    <glyph glyph-name="bracketright" unicode="]" horiz-adv-x="303" 
d="M31 -152v47h116v766h-116v47h178v-860h-178z" />
    <glyph glyph-name="asciicircum" unicode="^" horiz-adv-x="497" 
d="M60 284l152 386h73l152 -386h-72l-65 176l-49 133h-4l-50 -133l-65 -176h-72z" />
    <glyph glyph-name="underscore" unicode="_" horiz-adv-x="500" 
d="M12 -126v55h476v-55h-476z" />
    <glyph glyph-name="grave" unicode="`" horiz-adv-x="542" 
d="M285 573l-157 153l58 55l141 -167z" />
    <glyph glyph-name="a" unicode="a" horiz-adv-x="504" 
d="M194 -12q-61 0 -101.5 36t-40.5 102q0 80 71 122.5t227 59.5q0 23 -4.5 45t-15.5 39t-30.5 27.5t-49.5 10.5q-42 0 -79 -16t-66 -36l-32 57q34 22 83 42.5t108 20.5q89 0 129 -54.5t40 -145.5v-298h-68l-7 58h-3q-35 -29 -75 -49.5t-86 -20.5zM218 54q35 0 66 16.5
t66 48.5v135q-61 -8 -102.5 -19t-67 -26t-37 -34.5t-11.5 -42.5q0 -42 25 -60t61 -18z" />
    <glyph glyph-name="b" unicode="b" horiz-adv-x="553" 
d="M297 -12q-34 0 -70.5 16.5t-68.5 45.5h-3l-7 -50h-66v712h82v-194l-2 -88q33 29 72 48.5t80 19.5q47 0 83 -17.5t60.5 -50t37 -78t12.5 -101.5q0 -62 -17 -111t-46 -83t-67 -51.5t-80 -17.5zM283 57q30 0 55.5 13.5t44 38t29 60.5t10.5 81q0 40 -7 73t-22.5 56.5
t-40 36.5t-58.5 13q-59 0 -130 -66v-255q32 -28 63.5 -39.5t55.5 -11.5z" />
    <glyph glyph-name="c" unicode="c" horiz-adv-x="456" 
d="M274 -12q-48 0 -90 17t-72.5 49.5t-48 80t-17.5 107.5q0 61 19 108.5t51 80.5t74.5 50t89.5 17q48 0 82 -17t60 -40l-42 -54q-21 19 -44.5 31t-52.5 12q-33 0 -61 -13.5t-48 -38.5t-31.5 -59.5t-11.5 -76.5t11 -76t30.5 -58.5t47.5 -38t61 -13.5q34 0 62.5 14.5
t51.5 34.5l36 -55q-33 -29 -73 -45.5t-84 -16.5z" />
    <glyph glyph-name="d" unicode="d" horiz-adv-x="555" 
d="M248 -12q-92 0 -146.5 66t-54.5 188q0 59 17.5 106.5t46.5 80.5t67 51t80 18t73 -15t63 -41l-4 83v187h83v-712h-68l-7 57h-3q-29 -28 -66.5 -48.5t-80.5 -20.5zM266 57q34 0 64 16.5t60 50.5v254q-31 28 -59.5 39.5t-58.5 11.5q-29 0 -54.5 -13.5t-44.5 -38t-30 -58.5
t-11 -76q0 -88 35 -137t99 -49z" />
    <glyph glyph-name="e" unicode="e" horiz-adv-x="496" 
d="M279 -12q-49 0 -91.5 17.5t-74 50t-49.5 79.5t-18 107t18.5 107.5t49 80.5t69.5 50.5t81 17.5q46 0 82.5 -16t61 -46t37.5 -72t13 -94q0 -13 -0.5 -25.5t-2.5 -21.5h-328q5 -78 48.5 -123.5t113.5 -45.5q35 0 64.5 10.5t56.5 27.5l29 -54q-32 -20 -71 -35t-89 -15z
M126 282h260q0 74 -31.5 112.5t-88.5 38.5q-26 0 -49.5 -10t-42.5 -29.5t-31.5 -47.5t-16.5 -64z" />
    <glyph glyph-name="f" unicode="f" horiz-adv-x="292" 
d="M96 0v419h-66v62l66 5v77q0 75 34.5 118t107.5 43q23 0 43.5 -4.5t37.5 -11.5l-18 -63q-27 12 -55 12q-68 0 -68 -94v-77h103v-67h-103v-419h-82z" />
    <glyph glyph-name="g" unicode="g" horiz-adv-x="504" 
d="M246 -224q-45 0 -82 8.5t-63.5 25.5t-41 41t-14.5 56q0 31 19 59t52 51v4q-18 11 -30.5 30.5t-12.5 48.5q0 31 17 54t36 36v4q-24 20 -43.5 53.5t-19.5 77.5q0 40 14.5 72t39.5 54.5t58.5 34.5t70.5 12q20 0 37.5 -3.5t31.5 -8.5h169v-63h-100q17 -17 28.5 -43t11.5 -57
q0 -39 -14 -70.5t-38 -53t-56.5 -33.5t-69.5 -12q-18 0 -37 4.5t-36 12.5q-13 -11 -22 -24.5t-9 -33.5q0 -23 18 -38t68 -15h94q85 0 127.5 -27.5t42.5 -88.5q0 -34 -17 -64.5t-49 -53.5t-77.5 -36.5t-102.5 -13.5zM246 209q21 0 39.5 8t33 23t22.5 36.5t8 48.5
q0 54 -30 83.5t-73 29.5t-73 -29.5t-30 -83.5q0 -27 8 -48.5t22.5 -36.5t33 -23t39.5 -8zM258 -167q35 0 63.5 8.5t48.5 22t31 31.5t11 37q0 34 -25 47t-73 13h-84q-14 0 -30.5 1.5t-32.5 6.5q-26 -19 -38 -40t-12 -42q0 -39 37.5 -62t103.5 -23z" />
    <glyph glyph-name="h" unicode="h" horiz-adv-x="544" 
d="M82 0v712h82v-194l-3 -100q35 33 73 56.5t89 23.5q77 0 112.5 -48t35.5 -142v-308h-82v297q0 69 -22 99.5t-70 30.5q-38 0 -67 -19t-66 -56v-352h-82z" />
    <glyph glyph-name="i" unicode="i" horiz-adv-x="246" 
d="M82 0v486h82v-486h-82zM124 586q-24 0 -40.5 15t-16.5 38q0 24 16.5 38.5t40.5 14.5t40.5 -14.5t16.5 -38.5q0 -23 -16.5 -38t-40.5 -15z" />
    <glyph glyph-name="j" unicode="j" horiz-adv-x="247" 
d="M32 -217q-23 0 -41 4t-31 9l17 62q9 -3 21 -5.5t25 -2.5q36 0 48 25t12 70v541h82v-541q0 -74 -30 -118t-103 -44zM125 586q-24 0 -40.5 15t-16.5 38q0 24 16.5 38.5t40.5 14.5q23 0 39.5 -14.5t16.5 -38.5q0 -23 -16.5 -38t-39.5 -15z" />
    <glyph glyph-name="k" unicode="k" horiz-adv-x="495" 
d="M82 0v712h81v-482h3l207 256h91l-163 -195l185 -291h-90l-142 234l-91 -106v-128h-81z" />
    <glyph glyph-name="l" unicode="l" horiz-adv-x="255" 
d="M169 -12q-47 0 -67 28t-20 82v614h82v-620q0 -20 7 -28t16 -8h7.5t10.5 2l11 -62q-8 -4 -19 -6t-28 -2z" />
    <glyph glyph-name="m" unicode="m" horiz-adv-x="829" 
d="M82 0v486h68l7 -70h3q32 35 69.5 58.5t81.5 23.5q56 0 87.5 -24.5t46.5 -68.5q38 42 76.5 67.5t83.5 25.5q75 0 111.5 -48t36.5 -142v-308h-82v297q0 69 -22 99.5t-68 30.5q-55 0 -122 -75v-352h-82v297q0 69 -22 99.5t-69 30.5q-55 0 -122 -75v-352h-82z" />
    <glyph glyph-name="n" unicode="n" horiz-adv-x="547" 
d="M82 0v486h68l7 -70h3q35 35 73.5 58.5t89.5 23.5q77 0 112.5 -48t35.5 -142v-308h-82v297q0 69 -22 99.5t-70 30.5q-38 0 -67 -19t-66 -56v-352h-82z" />
    <glyph glyph-name="o" unicode="o" horiz-adv-x="542" 
d="M271 -12q-45 0 -85.5 17t-71.5 49.5t-49.5 80t-18.5 107.5q0 61 18.5 108.5t49.5 80.5t71.5 50t85.5 17t85.5 -17t71.5 -50t49.5 -80.5t18.5 -108.5q0 -60 -18.5 -107.5t-49.5 -80t-71.5 -49.5t-85.5 -17zM271 56q31 0 57 13.5t44.5 38t28.5 58.5t10 76t-10 76.5
t-28.5 59.5t-44.5 38.5t-57 13.5t-57 -13.5t-44.5 -38.5t-28.5 -59.5t-10 -76.5t10 -76t28.5 -58.5t44.5 -38t57 -13.5z" />
    <glyph glyph-name="p" unicode="p" horiz-adv-x="555" 
d="M82 -205v691h68l7 -56h3q33 28 72.5 48t82.5 20q47 0 83 -17.5t60 -50t36.5 -78t12.5 -102.5q0 -62 -17 -110.5t-46 -82.5t-67 -51.5t-80 -17.5q-34 0 -67.5 15t-67.5 41l2 -85v-164h-82zM283 57q30 0 55.5 13.5t44 38t29 60.5t10.5 81q0 40 -7 73t-22.5 56.5t-40 36.5
t-58.5 13q-31 0 -62.5 -17t-67.5 -49v-255q33 -28 64 -39.5t55 -11.5z" />
    <glyph glyph-name="q" unicode="q" horiz-adv-x="555" 
d="M390 -205v173l4 88q-29 -29 -66.5 -48.5t-79.5 -19.5q-92 0 -146.5 66t-54.5 188q0 59 17.5 106.5t46.5 80.5t67 51t80 18t74 -14.5t65 -43.5h2l8 46h66v-691h-83zM266 57q34 0 64 16.5t60 50.5v254q-31 28 -59.5 39.5t-58.5 11.5q-29 0 -54.5 -13.5t-44.5 -38t-30 -58.5
t-11 -76q0 -88 35 -137t99 -49z" />
    <glyph glyph-name="r" unicode="r" horiz-adv-x="347" 
d="M82 0v486h68l7 -88h3q25 46 60.5 73t77.5 27q29 0 52 -10l-16 -72q-12 4 -22 6t-25 2q-31 0 -64.5 -25t-58.5 -87v-312h-82z" />
    <glyph glyph-name="s" unicode="s" horiz-adv-x="419" 
d="M209 -12q-52 0 -99 19t-82 48l41 55q32 -26 65.5 -42t77.5 -16q48 0 72 22t24 54q0 19 -10 33t-25.5 24.5t-35.5 18.5l-40 16q-26 9 -52 20.5t-46.5 28t-33.5 38.5t-13 53q0 29 11.5 54.5t33 44t52.5 29t70 10.5q46 0 84.5 -16t66.5 -39l-39 -52q-25 19 -52 31t-59 12
q-46 0 -67.5 -21t-21.5 -49q0 -17 9 -29.5t24 -22t34.5 -17t40.5 -15.5q26 -10 52.5 -21t47.5 -27.5t34.5 -40.5t13.5 -58q0 -30 -11.5 -56t-34 -46t-56 -31.5t-76.5 -11.5z" />
    <glyph glyph-name="t" unicode="t" horiz-adv-x="338" 
d="M235 -12q-39 0 -65.5 12t-43 33t-23.5 51t-7 66v269h-72v62l76 5l10 136h69v-136h131v-67h-131v-270q0 -45 16.5 -69.5t58.5 -24.5q13 0 28 4t27 9l16 -62q-20 -7 -43.5 -12.5t-46.5 -5.5z" />
    <glyph glyph-name="u" unicode="u" horiz-adv-x="544" 
d="M224 -12q-78 0 -113.5 48t-35.5 142v308h83v-297q0 -69 21.5 -99.5t69.5 -30.5q38 0 67 19.5t64 62.5v345h82v-486h-68l-7 76h-3q-34 -40 -71.5 -64t-88.5 -24z" />
    <glyph glyph-name="v" unicode="v" horiz-adv-x="467" 
d="M187 0l-175 486h85l92 -276q11 -36 22.5 -72t22.5 -71h4q11 35 22 71l22 72l92 276h81l-172 -486h-96z" />
    <glyph glyph-name="w" unicode="w" horiz-adv-x="718" 
d="M159 0l-135 486h84l72 -281q8 -35 15 -68t14 -67h4q8 34 16 67.5t17 67.5l75 281h80l76 -281q9 -35 17.5 -68t16.5 -67h4q8 34 15 67t15 68l71 281h78l-130 -486h-100l-70 261q-9 35 -16.5 69t-16.5 71h-4q-8 -37 -16 -71.5t-18 -69.5l-68 -260h-96z" />
    <glyph glyph-name="x" unicode="x" horiz-adv-x="446" 
d="M14 0l159 254l-147 232h89l65 -107q11 -20 23 -40.5t25 -40.5h4q11 20 22 40.5t22 40.5l59 107h86l-147 -241l158 -245h-89l-71 113l-26 44t-27 43h-4q-13 -21 -25 -42.5t-24 -44.5l-66 -113h-86z" />
    <glyph glyph-name="y" unicode="y" horiz-adv-x="467" 
d="M90 -209q-17 0 -31 2.5t-26 7.5l16 65l18 -4.5t19 -2.5q42 0 68.5 29.5t41.5 74.5l11 36l-195 487h85l99 -269q11 -32 23.5 -67.5t23.5 -69.5h4q11 33 21 69t20 68l87 269h80l-183 -526q-13 -36 -29 -67t-38 -53.5t-50 -35.5t-65 -13z" />
    <glyph glyph-name="z" unicode="z" horiz-adv-x="425" 
d="M31 0v44l256 375h-228v67h332v-44l-256 -375h264v-67h-368z" />
    <glyph glyph-name="braceleft" unicode="{" horiz-adv-x="303" 
d="M228 -152q-59 0 -88 28t-29 105q0 27 1.5 51.5t3 47.5l3 46t1.5 48q0 15 -4 28.5t-13.5 24.5t-26.5 18t-42 7v52q25 0 42 7t26.5 17.5t13.5 24.5t4 28q0 51 -4.5 95t-4.5 99q0 77 29 105t88 28h45v-47h-27q-41 0 -54.5 -21t-13.5 -70q0 -46 3 -88t3 -93q0 -49 -14 -74.5
t-46 -34.5v-4q32 -9 46 -35t14 -74q0 -51 -3 -93t-3 -88q0 -49 13.5 -70t54.5 -21h27v-47h-45z" />
    <glyph glyph-name="bar" unicode="|" horiz-adv-x="241" 
d="M92 -250v1000h58v-1000h-58z" />
    <glyph glyph-name="braceright" unicode="}" horiz-adv-x="303" 
d="M31 -152v47h26q41 0 54.5 21t13.5 70q0 46 -2.5 88t-2.5 93q0 48 13.5 74t45.5 35v4q-32 9 -45.5 34.5t-13.5 74.5q0 51 2.5 93t2.5 88q0 49 -13.5 70t-54.5 21h-26v47h44q30 0 52 -6.5t36.5 -21.5t21.5 -40.5t7 -64.5q0 -55 -4.5 -99t-4.5 -95q0 -29 18 -52.5t68 -24.5
v-52q-25 0 -41.5 -7t-26.5 -18t-14 -24.5t-4 -28.5q0 -25 1.5 -48l3 -46t3 -47.5t1.5 -51.5q0 -39 -7 -64.5t-21.5 -40.5t-36.5 -21.5t-52 -6.5h-44z" />
    <glyph glyph-name="asciitilde" unicode="~" horiz-adv-x="497" 
d="M336 257q-30 0 -53.5 13t-44 29t-39.5 29t-40 13q-22 0 -41 -14.5t-36 -46.5l-46 33q27 48 60 69t65 21q30 0 53.5 -13t44 -29t39.5 -29t40 -13q22 0 41 14.5t36 46.5l46 -34q-27 -48 -60 -68.5t-65 -20.5z" />
    <glyph glyph-name="uni00A0" unicode="&#xa0;" horiz-adv-x="202" 
 />
    <glyph glyph-name="exclamdown" unicode="&#xa1;" horiz-adv-x="289" 
d="M103 -184l2 94l11 378h57l11 -378l2 -94h-83zM145 372q-25 0 -42.5 17.5t-17.5 46.5q0 27 17.5 44.5t42.5 17.5q24 0 41.5 -17.5t17.5 -44.5q0 -29 -17.5 -46.5t-41.5 -17.5z" />
    <glyph glyph-name="cent" unicode="&#xa2;" horiz-adv-x="497" 
d="M143 310q0 -67 31 -111t88 -57v335q-55 -13 -87 -57t-32 -110zM262 -33v104q-45 5 -82 23.5t-63.5 48.5t-41 72t-14.5 95q0 52 15.5 93t42.5 71t64 48.5t79 24.5v106h52v-103q44 -2 76 -19t55 -39l-40 -52q-20 18 -42.5 29t-48.5 13v-344q32 2 58 15.5t46 31.5l36 -52
q-29 -26 -65 -43t-75 -20v-103h-52z" />
    <glyph glyph-name="sterling" unicode="&#xa3;" horiz-adv-x="497" 
d="M54 0v50q51 28 78.5 75.5t27.5 104.5q0 14 -2 27.5t-5 27.5h-100v52l67 4h18q-10 32 -18.5 62.5t-8.5 62.5q0 42 13.5 76t38 58t58.5 37t76 13q54 0 91.5 -21.5t63.5 -53.5l-48 -47q-19 23 -43 38t-58 15q-54 0 -82.5 -32.5t-28.5 -84.5q0 -32 7.5 -61.5t16.5 -61.5h159
v-56h-146q2 -14 3.5 -27.5t1.5 -28.5q0 -53 -16 -88t-46 -66v-4h281v-71h-399z" />
    <glyph glyph-name="currency" unicode="&#xa4;" horiz-adv-x="497" 
d="M70 103l-44 45l64 65q-17 23 -26.5 52t-9.5 64t9.5 64.5t26.5 52.5l-64 66l44 45l68 -70q48 37 111 37q29 0 58 -9.5t52 -27.5l68 70l44 -45l-65 -66q17 -23 27 -52.5t10 -64.5t-10 -64t-27 -52l65 -65l-44 -45l-68 69q-23 -19 -52 -28.5t-58 -9.5q-64 0 -111 38z
M249 195q24 0 45.5 9.5t37.5 27.5t25.5 42.5t9.5 54.5t-9.5 54.5t-25.5 42.5t-37.5 27.5t-45.5 9.5t-46 -9.5t-38 -27.5t-25.5 -42.5t-9.5 -54.5t9.5 -54.5t25.5 -42.5t38 -27.5t46 -9.5z" />
    <glyph glyph-name="yen" unicode="&#xa5;" horiz-adv-x="497" 
d="M207 0v158h-162v48h162v65h-162v47h141l-163 320h86l78 -171q15 -33 29.5 -66.5t30.5 -68.5h4q17 35 31.5 68.5t29.5 66.5l78 171h84l-164 -320h142v-47h-163v-65h163v-48h-163v-158h-82z" />
    <glyph glyph-name="brokenbar" unicode="&#xa6;" horiz-adv-x="241" 
d="M92 291v459h58v-459h-58zM92 -250v464h58v-464h-58z" />
    <glyph glyph-name="section" unicode="&#xa7;" horiz-adv-x="497" 
d="M117 348q0 -33 20 -54.5t50.5 -37.5t66 -30.5t66.5 -32.5q29 14 44.5 33t15.5 52q0 34 -20 56t-50 38.5t-65.5 30.5t-66.5 32q-29 -16 -45 -36t-16 -51zM236 -64q-54 0 -98 19t-75 52l50 45q25 -24 54 -38t69 -14t62.5 20t22.5 49q0 28 -20.5 47t-51 34t-66.5 29.5
t-66.5 35.5t-51 51.5t-20.5 76.5q0 44 24 76t62 53q-15 16 -23.5 36t-8.5 46t9.5 49.5t29 41.5t47.5 28.5t66 10.5q48 0 86.5 -17t67.5 -40l-40 -53q-24 20 -51 33t-60 13q-42 0 -60.5 -18.5t-18.5 -44.5q0 -27 20.5 -45t51.5 -33t66.5 -30t66.5 -36.5t51.5 -52t20.5 -76.5
q0 -48 -23.5 -77.5t-61.5 -51.5q14 -17 22 -36.5t8 -45.5q0 -30 -12 -55t-33.5 -43t-51 -28.5t-64.5 -10.5z" />
    <glyph glyph-name="dieresis" unicode="&#xa8;" horiz-adv-x="542" 
d="M175 587q-22 0 -36 14.5t-14 35.5t14 35.5t36 14.5q21 0 35 -14.5t14 -35.5t-14 -35.5t-35 -14.5zM367 587q-21 0 -35 14.5t-14 35.5t14 35.5t35 14.5q22 0 36 -14.5t14 -35.5t-14 -35.5t-36 -14.5z" />
    <glyph glyph-name="copyright" unicode="&#xa9;" horiz-adv-x="744" 
d="M372 -11q-65 0 -124 23.5t-103 67t-70 105t-26 138.5q0 76 26 137t70 104t103 66t124 23t123.5 -23t103 -66t70.5 -104t26 -137q0 -77 -26 -138.5t-70.5 -105t-103 -67t-123.5 -23.5zM372 31q57 0 107 21t87.5 59.5t59.5 92t22 119.5q0 65 -22 118.5t-59.5 91.5
t-87.5 58.5t-107 20.5t-107 -20.5t-87.5 -58.5t-59.5 -91.5t-22 -118.5q0 -66 22 -119.5t59.5 -92t87.5 -59.5t107 -21zM380 125q-38 0 -71 13.5t-58 39t-39 62t-14 83.5q0 43 15.5 78t41 60t59 38t69.5 13q42 0 71.5 -16.5t53.5 -40.5l-35 -39q-20 20 -40.5 30.5
t-46.5 10.5q-55 0 -88.5 -37.5t-33.5 -96.5q0 -66 32.5 -104.5t86.5 -38.5q32 0 56 12.5t46 31.5l30 -42q-28 -24 -59 -40.5t-76 -16.5z" />
    <glyph glyph-name="ordfeminine" unicode="&#xaa;" horiz-adv-x="345" 
d="M136 387q-45 0 -72 25.5t-27 68.5q0 53 47.5 80.5t151.5 38.5q-1 32 -14 52.5t-48 20.5q-26 0 -53.5 -10.5t-47.5 -23.5l-23 43q25 15 59.5 28.5t73.5 13.5q60 0 87.5 -35t27.5 -98v-196h-50l-7 37h-4q-20 -18 -45 -31.5t-56 -13.5zM154 436q39 0 82 40v85
q-77 -8 -107.5 -27.5t-30.5 -47.5q0 -26 15 -38t41 -12z" />
    <glyph glyph-name="guillemotleft" unicode="&#xab;" horiz-adv-x="429" 
d="M181 66l-136 155v62l136 155l36 -30l-118 -156l118 -158zM339 66l-136 155v62l136 155l36 -30l-118 -156l118 -158z" />
    <glyph glyph-name="logicalnot" unicode="&#xac;" horiz-adv-x="497" 
d="M397 104v195h-363v62h429v-257h-66z" />
    <glyph glyph-name="uni00AD" unicode="&#xad;" horiz-adv-x="311" 
d="M41 219v63h230v-63h-230z" />
    <glyph glyph-name="registered" unicode="&#xae;" horiz-adv-x="423" 
d="M211 319q-39 0 -73 14.5t-59.5 40.5t-40.5 62t-15 80t15 80t40.5 62t59.5 40.5t73 14.5t73.5 -14.5t60 -40.5t40.5 -62t15 -80t-15 -80t-40.5 -62t-60 -40.5t-73.5 -14.5zM211 356q31 0 58.5 11.5t47.5 32.5t31.5 50.5t11.5 65.5q0 35 -11.5 64.5t-31.5 51t-47.5 33.5
t-58.5 12q-32 0 -59 -12t-46.5 -33.5t-31 -51t-11.5 -64.5q0 -36 11.5 -65.5t31 -50.5t46.5 -32.5t59 -11.5zM139 417v203h76q32 0 55 -14.5t23 -50.5q0 -18 -10 -33.5t-27 -21.5l46 -83h-46l-35 70h-41v-70h-41zM180 519h26q43 0 43 34q0 15 -9 24t-32 9h-28v-67z" />
    <glyph glyph-name="macron" unicode="&#xaf;" horiz-adv-x="542" 
d="M138 601v57h266v-57h-266z" />
    <glyph glyph-name="degree" unicode="&#xb0;" horiz-adv-x="331" 
d="M166 429q-25 0 -47.5 9t-40 25.5t-27.5 40t-10 52.5q0 30 10 53.5t27.5 40.5t40 26t47.5 9t47.5 -9t40 -26t27.5 -40.5t10 -53.5q0 -29 -10 -52.5t-27.5 -40t-40 -25.5t-47.5 -9zM166 475q33 0 54 23t21 58q0 37 -21 60t-54 23t-54 -23t-21 -60q0 -35 21 -58t54 -23z" />
    <glyph glyph-name="plusminus" unicode="&#xb1;" horiz-adv-x="497" 
d="M216 127v177h-182v62h182v190h65v-190h182v-62h-182v-177h-65zM34 0v62h429v-62h-429z" />
    <glyph glyph-name="two.sups" unicode="&#xb2;" horiz-adv-x="367" 
d="M52 395v37q45 41 80 73.5t58 59.5t35 50.5t12 45.5q0 38 -20 60t-55 22q-25 0 -46 -16.5t-38 -40.5l-38 35q23 34 56.5 55t73.5 21q59 0 94.5 -32t35.5 -94q0 -28 -11 -54t-30.5 -52.5t-46 -54.5t-57.5 -60h165v-55h-268z" />
    <glyph glyph-name="three.sups" unicode="&#xb3;" horiz-adv-x="367" 
d="M180 383q-48 0 -85 21.5t-60 54.5l43 33q18 -27 43 -42.5t56 -15.5q32 0 55 18t23 52t-32 51.5t-89 17.5v41q51 0 78.5 20t27.5 50q0 28 -19.5 45t-51.5 17q-22 0 -42 -13.5t-37 -33.5l-39 34q26 29 56.5 46.5t71.5 17.5q25 0 47.5 -7t39.5 -20.5t27 -33t10 -44.5
q0 -35 -19 -58.5t-49 -37.5q33 -8 58.5 -32.5t25.5 -63.5q0 -27 -11 -48.5t-30 -37t-44.5 -23.5t-53.5 -8z" />
    <glyph glyph-name="acute" unicode="&#xb4;" horiz-adv-x="542" 
d="M257 573l-42 41l141 167l58 -55z" />
    <glyph glyph-name="uni00B5" unicode="&#xb5;" horiz-adv-x="562" 
d="M82 -179v665h82v-297q0 -65 20.5 -97.5t68.5 -32.5q16 0 32 3.5t32 14t32 29t33 48.5v332h83q-2 -99 -4 -201t-2 -190q0 -20 10 -29.5t26 -9.5q12 0 29 6l11 -62q-11 -5 -24.5 -8.5t-33.5 -3.5q-42 0 -62.5 22.5t-25.5 71.5h-2q-26 -47 -60.5 -69.5t-74.5 -22.5
q-29 0 -53 9t-41 38q0 -36 0.5 -63.5t1.5 -51.5l2 -48t3 -53h-83z" />
    <glyph glyph-name="paragraph" unicode="&#xb6;" horiz-adv-x="560" 
d="M380 -80v736h84v-736h-84zM293 226q-54 0 -100.5 12.5t-80 39t-52.5 67.5t-19 98q0 59 18 99.5t50.5 66t76.5 36.5t96 11h44v-430h-33z" />
    <glyph glyph-name="periodcentered" unicode="&#xb7;" horiz-adv-x="249" 
d="M125 259q-25 0 -42.5 17.5t-17.5 44.5q0 29 17.5 46.5t42.5 17.5q24 0 41.5 -17.5t17.5 -46.5q0 -27 -17.5 -44.5t-41.5 -17.5z" />
    <glyph glyph-name="cedilla" unicode="&#xb8;" horiz-adv-x="542" 
d="M190 -226l-8 40q63 5 86 16.5t23 33.5q0 20 -17 31t-60 17l44 91h53l-29 -67q35 -8 54 -24t19 -47q0 -44 -42.5 -65.5t-122.5 -25.5z" />
    <glyph glyph-name="one.sups" unicode="&#xb9;" horiz-adv-x="367" 
d="M172 395v308h-85v42q33 6 55 15.5t42 24.5h52v-390h-64z" />
    <glyph glyph-name="ordmasculine" unicode="&#xba;" horiz-adv-x="365" 
d="M182 387q-31 0 -58.5 11.5t-48.5 33t-33 52.5t-12 71t12 71.5t33 53.5t48.5 33t58.5 11t58.5 -11t48.5 -33t33 -53.5t12 -71.5t-12 -71t-33 -52.5t-48.5 -33t-58.5 -11.5zM182 438q42 0 65 32.5t23 84.5q0 54 -23 86t-65 32t-65.5 -32t-23.5 -86q0 -52 23.5 -84.5
t65.5 -32.5z" />
    <glyph glyph-name="guillemotright" unicode="&#xbb;" horiz-adv-x="429" 
d="M89 66l-35 28l118 158l-118 156l35 30l137 -155v-62zM247 66l-35 28l118 158l-118 156l35 30l137 -155v-62z" />
    <glyph glyph-name="onequarter" unicode="&#xbc;" horiz-adv-x="781" 
d="M149 266v308h-85v42q33 6 55 15.5t42 24.5h52v-390h-64zM180 -12l362 680h56l-362 -680h-56zM633 0v104h-178v33l164 253h72v-240h58v-46h-58v-104h-58zM522 150h111v70l4 109h-4l-50 -81z" />
    <glyph glyph-name="onehalf" unicode="&#xbd;" horiz-adv-x="808" 
d="M149 266v308h-85v42q33 6 55 15.5t42 24.5h52v-390h-64zM159 -12l362 680h56l-362 -680h-56zM493 0v37q45 41 80 73.5t58 59.5t35 50.5t12 45.5q0 38 -20 60t-55 22q-25 0 -46 -16.5t-38 -40.5l-38 35q23 34 56.5 55t73.5 21q59 0 94.5 -32t35.5 -94q0 -28 -11 -54
t-30.5 -52.5t-46 -54.5t-57.5 -60h165v-55h-268z" />
    <glyph glyph-name="threequarters" unicode="&#xbe;" horiz-adv-x="796" 
d="M180 254q-48 0 -85 21.5t-60 54.5l43 33q18 -27 43 -42.5t56 -15.5q32 0 55 18t23 52t-32 51.5t-89 17.5v41q51 0 78.5 20t27.5 50q0 28 -19.5 45t-51.5 17q-22 0 -42 -13.5t-37 -33.5l-39 34q26 29 56.5 46.5t71.5 17.5q25 0 47.5 -7t39.5 -20.5t27 -33t10 -44.5
q0 -35 -19 -58.5t-49 -37.5q33 -8 58.5 -32.5t25.5 -63.5q0 -27 -11 -48.5t-30 -37t-44.5 -23.5t-53.5 -8zM217 -12l362 680h56l-362 -680h-56zM648 0v104h-178v33l164 253h72v-240h58v-46h-58v-104h-58zM537 150h111v70l4 109h-4l-50 -81z" />
    <glyph glyph-name="questiondown" unicode="&#xbf;" horiz-adv-x="425" 
d="M215 -196q-76 0 -121.5 42.5t-45.5 117.5q0 33 12 60t29.5 51t37 47.5t35.5 48.5t25 53.5t5 63.5h73q5 -39 -3 -70.5t-23 -58t-34.5 -49.5t-36.5 -45.5t-28.5 -46t-11.5 -49.5q0 -40 24 -68t73 -28q33 0 62 15t52 42l48 -43q-32 -35 -74.5 -59t-97.5 -24zM227 372
q-25 0 -42.5 17.5t-17.5 46.5q0 27 17.5 44.5t42.5 17.5q24 0 41.5 -17.5t17.5 -44.5q0 -29 -17.5 -46.5t-41.5 -17.5z" />
    <glyph glyph-name="Agrave" unicode="&#xc0;" horiz-adv-x="544" 
d="M203 367l-31 -100h197l-31 100q-18 55 -34 109.5t-32 111.5h-4q-15 -57 -31 -111.5t-34 -109.5zM3 0l222 656h94l222 -656h-89l-62 200h-239l-63 -200h-85zM288 697l-152 115l47 55l142 -128z" />
    <glyph glyph-name="Aacute" unicode="&#xc1;" horiz-adv-x="544" 
d="M203 367l-31 -100h197l-31 100q-18 55 -34 109.5t-32 111.5h-4q-15 -57 -31 -111.5t-34 -109.5zM3 0l222 656h94l222 -656h-89l-62 200h-239l-63 -200h-85zM254 697l-37 42l142 128l47 -55z" />
    <glyph glyph-name="Acircumflex" unicode="&#xc2;" horiz-adv-x="544" 
d="M203 367l-31 -100h197l-31 100q-18 55 -34 109.5t-32 111.5h-4q-15 -57 -31 -111.5t-34 -109.5zM3 0l222 656h94l222 -656h-89l-62 200h-239l-63 -200h-85zM123 725l105 113h86l105 -113l-36 -26l-110 93h-4l-110 -93z" />
    <glyph glyph-name="Atilde" unicode="&#xc3;" horiz-adv-x="544" 
d="M203 367l-31 -100h197l-31 100q-18 55 -34 109.5t-32 111.5h-4q-15 -57 -31 -111.5t-34 -109.5zM3 0l222 656h94l222 -656h-89l-62 200h-239l-63 -200h-85zM346 709q-28 0 -48 11t-36.5 24.5t-31 24.5t-32.5 11q-19 0 -32 -17t-16 -49l-56 4q3 57 30 90t72 33
q28 0 48 -11t36.5 -24.5t31 -24.5t32.5 -11q40 0 48 66l56 -4q-3 -58 -30 -90.5t-72 -32.5z" />
    <glyph glyph-name="Adieresis" unicode="&#xc4;" horiz-adv-x="544" 
d="M203 367l-31 -100h197l-31 100q-18 55 -34 109.5t-32 111.5h-4q-15 -57 -31 -111.5t-34 -109.5zM3 0l222 656h94l222 -656h-89l-62 200h-239l-63 -200h-85zM168 715q-21 0 -35 14t-14 35q0 22 14 35.5t35 13.5q22 0 35.5 -13.5t13.5 -35.5q0 -21 -13.5 -35t-35.5 -14z
M374 715q-22 0 -35.5 14t-13.5 35q0 22 13.5 35.5t35.5 13.5q21 0 35 -13.5t14 -35.5q0 -21 -14 -35t-35 -14z" />
    <glyph glyph-name="Aring" unicode="&#xc5;" horiz-adv-x="544" 
d="M203 367l-31 -100h197l-31 100q-18 55 -34 109.5t-32 111.5h-4q-15 -57 -31 -111.5t-34 -109.5zM3 0l222 656h94l222 -656h-89l-62 200h-239l-63 -200h-85zM271 699q-42 0 -69.5 24.5t-27.5 65.5q0 42 27.5 66.5t69.5 24.5t69.5 -24.5t27.5 -66.5q0 -41 -27.5 -65.5
t-69.5 -24.5zM271 735q20 0 35.5 14t15.5 40t-15.5 40t-35.5 14q-22 0 -37 -14t-15 -40t15 -40t37 -14z" />
    <glyph glyph-name="AE" unicode="&#xc6;" horiz-adv-x="822" 
d="M290 376l-61 -118h172v332h-4q-53 -107 -107 -214zM8 0l344 656h411v-70h-278v-206h232v-71h-232v-238h288v-71h-372v191h-206l-99 -191h-88z" />
    <glyph glyph-name="Ccedilla" unicode="&#xc7;" horiz-adv-x="571" 
d="M338 -12q-62 0 -114 23t-90.5 66.5t-60 107t-21.5 143.5q0 79 22 142t61 107t92 67.5t116 23.5q60 0 105.5 -24.5t74.5 -56.5l-45 -54q-26 28 -59 45t-75 17q-47 0 -85 -18.5t-65 -53t-41.5 -83.5t-14.5 -110q0 -62 14.5 -111.5t40.5 -84.5t63.5 -54t84.5 -19
q48 0 84 19.5t68 54.5l46 -52q-39 -45 -88 -70t-113 -25zM256 -226l-8 40q63 5 86 16.5t23 33.5q0 20 -17 31t-60 17l44 91h53l-29 -67q35 -8 54 -24t19 -47q0 -44 -42.5 -65.5t-122.5 -25.5z" />
    <glyph glyph-name="Egrave" unicode="&#xc8;" horiz-adv-x="527" 
d="M90 0v656h378v-70h-295v-206h249v-71h-249v-238h305v-71h-388zM301 697l-152 115l47 55l142 -128z" />
    <glyph glyph-name="Eacute" unicode="&#xc9;" horiz-adv-x="527" 
d="M90 0v656h378v-70h-295v-206h249v-71h-249v-238h305v-71h-388zM267 697l-37 42l142 128l47 -55z" />
    <glyph glyph-name="Ecircumflex" unicode="&#xca;" horiz-adv-x="527" 
d="M90 0v656h378v-70h-295v-206h249v-71h-249v-238h305v-71h-388zM136 725l105 113h86l105 -113l-36 -26l-110 93h-4l-110 -93z" />
    <glyph glyph-name="Edieresis" unicode="&#xcb;" horiz-adv-x="527" 
d="M90 0v656h378v-70h-295v-206h249v-71h-249v-238h305v-71h-388zM181 715q-21 0 -35 14t-14 35q0 22 14 35.5t35 13.5q22 0 35.5 -13.5t13.5 -35.5q0 -21 -13.5 -35t-35.5 -14zM387 715q-22 0 -35.5 14t-13.5 35q0 22 13.5 35.5t35.5 13.5q21 0 35 -13.5t14 -35.5
q0 -21 -14 -35t-35 -14z" />
    <glyph glyph-name="Igrave" unicode="&#xcc;" horiz-adv-x="263" 
d="M90 0v656h83v-656h-83zM148 697l-152 115l47 55l142 -128z" />
    <glyph glyph-name="Iacute" unicode="&#xcd;" horiz-adv-x="263" 
d="M90 0v656h83v-656h-83zM114 697l-37 42l142 128l47 -55z" />
    <glyph glyph-name="Icircumflex" unicode="&#xce;" horiz-adv-x="263" 
d="M90 0v656h83v-656h-83zM-17 725l105 113h86l105 -113l-36 -26l-110 93h-4l-110 -93z" />
    <glyph glyph-name="Idieresis" unicode="&#xcf;" horiz-adv-x="263" 
d="M90 0v656h83v-656h-83zM28 715q-21 0 -35 14t-14 35q0 22 14 35.5t35 13.5q22 0 35.5 -13.5t13.5 -35.5q0 -21 -13.5 -35t-35.5 -14zM234 715q-22 0 -35.5 14t-13.5 35q0 22 13.5 35.5t35.5 13.5q21 0 35 -13.5t14 -35.5q0 -21 -14 -35t-35 -14z" />
    <glyph glyph-name="Eth" unicode="&#xd0;" horiz-adv-x="638" 
d="M33 321v43l79 4v288h164q152 0 231 -84t79 -241q0 -78 -20 -139.5t-59 -104t-96 -65t-131 -22.5h-168v321h-79zM195 68h75q115 0 172.5 69t57.5 194t-57.5 191t-172.5 66h-75v-220h149v-47h-149v-253z" />
    <glyph glyph-name="Ntilde" unicode="&#xd1;" horiz-adv-x="647" 
d="M90 0v656h86l237 -412l71 -136h4q-3 50 -6.5 103.5t-3.5 105.5v339h79v-656h-86l-238 413l-71 135h-4q4 -50 7.5 -101.5t3.5 -103.5v-343h-79zM401 709q-28 0 -48 11t-36.5 24.5t-31 24.5t-32.5 11q-19 0 -32 -17t-16 -49l-56 4q3 57 30 90t72 33q28 0 48 -11t36.5 -24.5
t31 -24.5t32.5 -11q40 0 48 66l56 -4q-3 -58 -30 -90.5t-72 -32.5z" />
    <glyph glyph-name="Ograve" unicode="&#xd2;" horiz-adv-x="664" 
d="M332 -12q-62 0 -113.5 24t-88.5 68.5t-57.5 108t-20.5 142.5t20.5 141.5t57.5 106t88.5 66.5t113.5 23t113.5 -23.5t89 -67t58 -106t20.5 -140.5q0 -79 -20.5 -142.5t-58 -108t-89 -68.5t-113.5 -24zM332 61q44 0 79.5 19t61 54.5t39.5 85t14 111.5q0 61 -14 110
t-39.5 83t-61 52.5t-79.5 18.5t-79.5 -18.5t-61 -52.5t-39.5 -83t-14 -110q0 -62 14 -111.5t39.5 -85t61 -54.5t79.5 -19zM349 697l-152 115l47 55l142 -128z" />
    <glyph glyph-name="Oacute" unicode="&#xd3;" horiz-adv-x="664" 
d="M332 -12q-62 0 -113.5 24t-88.5 68.5t-57.5 108t-20.5 142.5t20.5 141.5t57.5 106t88.5 66.5t113.5 23t113.5 -23.5t89 -67t58 -106t20.5 -140.5q0 -79 -20.5 -142.5t-58 -108t-89 -68.5t-113.5 -24zM332 61q44 0 79.5 19t61 54.5t39.5 85t14 111.5q0 61 -14 110
t-39.5 83t-61 52.5t-79.5 18.5t-79.5 -18.5t-61 -52.5t-39.5 -83t-14 -110q0 -62 14 -111.5t39.5 -85t61 -54.5t79.5 -19zM315 697l-37 42l142 128l47 -55z" />
    <glyph glyph-name="Ocircumflex" unicode="&#xd4;" horiz-adv-x="664" 
d="M332 -12q-62 0 -113.5 24t-88.5 68.5t-57.5 108t-20.5 142.5t20.5 141.5t57.5 106t88.5 66.5t113.5 23t113.5 -23.5t89 -67t58 -106t20.5 -140.5q0 -79 -20.5 -142.5t-58 -108t-89 -68.5t-113.5 -24zM332 61q44 0 79.5 19t61 54.5t39.5 85t14 111.5q0 61 -14 110
t-39.5 83t-61 52.5t-79.5 18.5t-79.5 -18.5t-61 -52.5t-39.5 -83t-14 -110q0 -62 14 -111.5t39.5 -85t61 -54.5t79.5 -19zM184 725l105 113h86l105 -113l-36 -26l-110 93h-4l-110 -93z" />
    <glyph glyph-name="Otilde" unicode="&#xd5;" horiz-adv-x="664" 
d="M332 -12q-62 0 -113.5 24t-88.5 68.5t-57.5 108t-20.5 142.5t20.5 141.5t57.5 106t88.5 66.5t113.5 23t113.5 -23.5t89 -67t58 -106t20.5 -140.5q0 -79 -20.5 -142.5t-58 -108t-89 -68.5t-113.5 -24zM332 61q44 0 79.5 19t61 54.5t39.5 85t14 111.5q0 61 -14 110
t-39.5 83t-61 52.5t-79.5 18.5t-79.5 -18.5t-61 -52.5t-39.5 -83t-14 -110q0 -62 14 -111.5t39.5 -85t61 -54.5t79.5 -19zM407 709q-28 0 -48 11t-36.5 24.5t-31 24.5t-32.5 11q-19 0 -32 -17t-16 -49l-56 4q3 57 30 90t72 33q28 0 48 -11t36.5 -24.5t31 -24.5t32.5 -11
q40 0 48 66l56 -4q-3 -58 -30 -90.5t-72 -32.5z" />
    <glyph glyph-name="Odieresis" unicode="&#xd6;" horiz-adv-x="664" 
d="M332 -12q-62 0 -113.5 24t-88.5 68.5t-57.5 108t-20.5 142.5t20.5 141.5t57.5 106t88.5 66.5t113.5 23t113.5 -23.5t89 -67t58 -106t20.5 -140.5q0 -79 -20.5 -142.5t-58 -108t-89 -68.5t-113.5 -24zM332 61q44 0 79.5 19t61 54.5t39.5 85t14 111.5q0 61 -14 110
t-39.5 83t-61 52.5t-79.5 18.5t-79.5 -18.5t-61 -52.5t-39.5 -83t-14 -110q0 -62 14 -111.5t39.5 -85t61 -54.5t79.5 -19zM229 715q-21 0 -35 14t-14 35q0 22 14 35.5t35 13.5q22 0 35.5 -13.5t13.5 -35.5q0 -21 -13.5 -35t-35.5 -14zM435 715q-22 0 -35.5 14t-13.5 35
q0 22 13.5 35.5t35.5 13.5q21 0 35 -13.5t14 -35.5q0 -21 -14 -35t-35 -14z" />
    <glyph glyph-name="multiply" unicode="&#xd7;" horiz-adv-x="497" 
d="M94 126l-44 45l155 159l-155 158l44 45l155 -159l154 159l44 -45l-155 -158l155 -159l-44 -45l-154 160z" />
    <glyph glyph-name="Oslash" unicode="&#xd8;" horiz-adv-x="664" 
d="M335 -12q-104 0 -175 65l-64 -83l-46 36l70 91q-31 45 -48 103.5t-17 130.5q0 79 20.5 141.5t57.5 106t88.5 66.5t113.5 23q104 0 176 -63l62 81l46 -35l-69 -89q32 -44 49 -101.5t17 -129.5q0 -79 -20.5 -142.5t-58 -108t-89 -68.5t-113.5 -24zM141 331q0 -48 8.5 -89.5
t24.5 -73.5l288 373q-51 54 -127 54q-44 0 -79.5 -18.5t-61 -52.5t-39.5 -83t-14 -110zM335 61q44 0 79.5 19t61 54.5t39.5 85t14 111.5q0 48 -8.5 88t-24.5 72l-287 -374q50 -56 126 -56z" />
    <glyph glyph-name="Ugrave" unicode="&#xd9;" horiz-adv-x="645" 
d="M323 -12q-50 0 -93.5 14.5t-75 48t-49.5 87.5t-18 133v385h83v-387q0 -59 12 -99t32.5 -64t48.5 -34.5t60 -10.5q33 0 61 10.5t49 34.5t33 64t12 99v387h80v-385q0 -79 -18 -133t-49.5 -87.5t-74.5 -48t-93 -14.5zM339 697l-152 115l47 55l142 -128z" />
    <glyph glyph-name="Uacute" unicode="&#xda;" horiz-adv-x="645" 
d="M323 -12q-50 0 -93.5 14.5t-75 48t-49.5 87.5t-18 133v385h83v-387q0 -59 12 -99t32.5 -64t48.5 -34.5t60 -10.5q33 0 61 10.5t49 34.5t33 64t12 99v387h80v-385q0 -79 -18 -133t-49.5 -87.5t-74.5 -48t-93 -14.5zM305 697l-37 42l142 128l47 -55z" />
    <glyph glyph-name="Ucircumflex" unicode="&#xdb;" horiz-adv-x="645" 
d="M323 -12q-50 0 -93.5 14.5t-75 48t-49.5 87.5t-18 133v385h83v-387q0 -59 12 -99t32.5 -64t48.5 -34.5t60 -10.5q33 0 61 10.5t49 34.5t33 64t12 99v387h80v-385q0 -79 -18 -133t-49.5 -87.5t-74.5 -48t-93 -14.5zM174 725l105 113h86l105 -113l-36 -26l-110 93h-4
l-110 -93z" />
    <glyph glyph-name="Udieresis" unicode="&#xdc;" horiz-adv-x="645" 
d="M323 -12q-50 0 -93.5 14.5t-75 48t-49.5 87.5t-18 133v385h83v-387q0 -59 12 -99t32.5 -64t48.5 -34.5t60 -10.5q33 0 61 10.5t49 34.5t33 64t12 99v387h80v-385q0 -79 -18 -133t-49.5 -87.5t-74.5 -48t-93 -14.5zM219 715q-21 0 -35 14t-14 35q0 22 14 35.5t35 13.5
q22 0 35.5 -13.5t13.5 -35.5q0 -21 -13.5 -35t-35.5 -14zM425 715q-22 0 -35.5 14t-13.5 35q0 22 13.5 35.5t35.5 13.5q21 0 35 -13.5t14 -35.5q0 -21 -14 -35t-35 -14z" />
    <glyph glyph-name="Yacute" unicode="&#xdd;" horiz-adv-x="476" 
d="M196 0v254l-197 402h89l85 -185q16 -36 31 -71t32 -72h4q17 37 34 72t32 71l84 185h87l-197 -402v-254h-84zM221 697l-37 42l142 128l47 -55z" />
    <glyph glyph-name="Thorn" unicode="&#xde;" horiz-adv-x="583" 
d="M90 0v656h83v-110h118q54 0 99 -10t76.5 -33t49 -59.5t17.5 -90.5q0 -52 -17.5 -90.5t-49.5 -63.5t-76.5 -37t-98.5 -12h-118v-150h-83zM173 218h108q86 0 127.5 32t41.5 103t-42 98t-127 27h-108v-260z" />
    <glyph glyph-name="germandbls" unicode="&#xdf;" horiz-adv-x="576" 
d="M387 -12q-42 0 -76 13t-65 36l33 58q26 -22 51.5 -32.5t54.5 -10.5q42 0 63 24t21 56q0 29 -14.5 48t-36.5 33t-47.5 26.5t-47.5 28.5t-36.5 38.5t-14.5 57.5q0 34 13.5 58t30 46t30.5 45t14 55q0 38 -20.5 62.5t-62.5 24.5q-54 0 -83.5 -38.5t-29.5 -116.5v-500h-82v515
q0 94 51 150.5t145 56.5q39 0 69.5 -11.5t51.5 -31.5t31.5 -46.5t10.5 -56.5q0 -38 -14 -64.5t-31.5 -48.5t-31.5 -42.5t-14 -46.5q0 -24 14.5 -40t36.5 -28.5t47.5 -25.5t47.5 -31t36.5 -45t14.5 -67q0 -32 -11 -59t-32 -47t-50.5 -31.5t-66.5 -11.5z" />
    <glyph glyph-name="agrave" unicode="&#xe0;" horiz-adv-x="504" 
d="M194 -12q-61 0 -101.5 36t-40.5 102q0 80 71 122.5t227 59.5q0 23 -4.5 45t-15.5 39t-30.5 27.5t-49.5 10.5q-42 0 -79 -16t-66 -36l-32 57q34 22 83 42.5t108 20.5q89 0 129 -54.5t40 -145.5v-298h-68l-7 58h-3q-35 -29 -75 -49.5t-86 -20.5zM218 54q35 0 66 16.5
t66 48.5v135q-61 -8 -102.5 -19t-67 -26t-37 -34.5t-11.5 -42.5q0 -42 25 -60t61 -18zM276 573l-157 153l58 55l141 -167z" />
    <glyph glyph-name="aacute" unicode="&#xe1;" horiz-adv-x="504" 
d="M194 -12q-61 0 -101.5 36t-40.5 102q0 80 71 122.5t227 59.5q0 23 -4.5 45t-15.5 39t-30.5 27.5t-49.5 10.5q-42 0 -79 -16t-66 -36l-32 57q34 22 83 42.5t108 20.5q89 0 129 -54.5t40 -145.5v-298h-68l-7 58h-3q-35 -29 -75 -49.5t-86 -20.5zM218 54q35 0 66 16.5
t66 48.5v135q-61 -8 -102.5 -19t-67 -26t-37 -34.5t-11.5 -42.5q0 -42 25 -60t61 -18zM248 573l-42 41l141 167l58 -55z" />
    <glyph glyph-name="acircumflex" unicode="&#xe2;" horiz-adv-x="504" 
d="M194 -12q-61 0 -101.5 36t-40.5 102q0 80 71 122.5t227 59.5q0 23 -4.5 45t-15.5 39t-30.5 27.5t-49.5 10.5q-42 0 -79 -16t-66 -36l-32 57q34 22 83 42.5t108 20.5q89 0 129 -54.5t40 -145.5v-298h-68l-7 58h-3q-35 -29 -75 -49.5t-86 -20.5zM218 54q35 0 66 16.5
t66 48.5v135q-61 -8 -102.5 -19t-67 -26t-37 -34.5t-11.5 -42.5q0 -42 25 -60t61 -18zM107 600l114 140h82l114 -140l-35 -32l-118 113h-4l-118 -113z" />
    <glyph glyph-name="atilde" unicode="&#xe3;" horiz-adv-x="504" 
d="M194 -12q-61 0 -101.5 36t-40.5 102q0 80 71 122.5t227 59.5q0 23 -4.5 45t-15.5 39t-30.5 27.5t-49.5 10.5q-42 0 -79 -16t-66 -36l-32 57q34 22 83 42.5t108 20.5q89 0 129 -54.5t40 -145.5v-298h-68l-7 58h-3q-35 -29 -75 -49.5t-86 -20.5zM218 54q35 0 66 16.5
t66 48.5v135q-61 -8 -102.5 -19t-67 -26t-37 -34.5t-11.5 -42.5q0 -42 25 -60t61 -18zM334 577q-27 0 -46 13t-35 29t-30.5 29t-31.5 13q-23 0 -34 -22t-13 -57l-55 3q1 29 7.5 54t18.5 43t30.5 28.5t44.5 10.5q27 0 46 -13t35 -29t30.5 -29t32.5 -13q22 0 33 22t13 57
l55 -4q-1 -29 -7.5 -53.5t-18.5 -42.5t-30.5 -28.5t-44.5 -10.5z" />
    <glyph glyph-name="adieresis" unicode="&#xe4;" horiz-adv-x="504" 
d="M194 -12q-61 0 -101.5 36t-40.5 102q0 80 71 122.5t227 59.5q0 23 -4.5 45t-15.5 39t-30.5 27.5t-49.5 10.5q-42 0 -79 -16t-66 -36l-32 57q34 22 83 42.5t108 20.5q89 0 129 -54.5t40 -145.5v-298h-68l-7 58h-3q-35 -29 -75 -49.5t-86 -20.5zM218 54q35 0 66 16.5
t66 48.5v135q-61 -8 -102.5 -19t-67 -26t-37 -34.5t-11.5 -42.5q0 -42 25 -60t61 -18zM166 587q-22 0 -36 14.5t-14 35.5t14 35.5t36 14.5q21 0 35 -14.5t14 -35.5t-14 -35.5t-35 -14.5zM358 587q-21 0 -35 14.5t-14 35.5t14 35.5t35 14.5q22 0 36 -14.5t14 -35.5t-14 -35.5
t-36 -14.5z" />
    <glyph glyph-name="aring" unicode="&#xe5;" horiz-adv-x="504" 
d="M194 -12q-61 0 -101.5 36t-40.5 102q0 80 71 122.5t227 59.5q0 23 -4.5 45t-15.5 39t-30.5 27.5t-49.5 10.5q-42 0 -79 -16t-66 -36l-32 57q34 22 83 42.5t108 20.5q89 0 129 -54.5t40 -145.5v-298h-68l-7 58h-3q-35 -29 -75 -49.5t-86 -20.5zM218 54q35 0 66 16.5
t66 48.5v135q-61 -8 -102.5 -19t-67 -26t-37 -34.5t-11.5 -42.5q0 -42 25 -60t61 -18zM262 554q-51 0 -80.5 28t-29.5 71q0 42 29.5 70t80.5 28t80.5 -28t29.5 -70q0 -43 -29.5 -71t-80.5 -28zM262 591q24 0 40.5 16.5t16.5 45.5q0 28 -16.5 44.5t-40.5 16.5t-40.5 -16.5
t-16.5 -44.5q0 -29 16.5 -45.5t40.5 -16.5z" />
    <glyph glyph-name="ae" unicode="&#xe6;" horiz-adv-x="785" 
d="M201 -12q-62 0 -102.5 36t-40.5 102q0 80 71 122.5t223 59.5q0 23 -4 45t-15.5 39t-30.5 27.5t-49 10.5q-40 0 -76 -16t-65 -36l-33 57q34 22 82 42.5t102 20.5t89 -27.5t50 -75.5q29 48 69.5 75.5t90.5 27.5q45 0 79.5 -16t58 -46t35.5 -72.5t12 -94.5q0 -28 -3 -46
h-315q1 -38 13.5 -69t32.5 -53t47 -34t58 -12q35 0 63 11.5t55 28.5l30 -57q-32 -20 -70 -35t-88 -15q-61 0 -102 27.5t-69 63.5q-50 -45 -100.5 -68t-97.5 -23zM224 54q34 0 74 19.5t73 55.5q-8 19 -13 45.5t-6 54.5v25q-58 -8 -98.5 -19t-66 -26t-37 -34.5t-11.5 -42.5
q0 -42 24.5 -60t60.5 -18zM429 278h246q0 75 -29.5 115t-85.5 40q-51 0 -87.5 -41.5t-43.5 -113.5z" />
    <glyph glyph-name="ccedilla" unicode="&#xe7;" horiz-adv-x="456" 
d="M274 -12q-48 0 -90 17t-72.5 49.5t-48 80t-17.5 107.5q0 61 19 108.5t51 80.5t74.5 50t89.5 17q48 0 82 -17t60 -40l-42 -54q-21 19 -44.5 31t-52.5 12q-33 0 -61 -13.5t-48 -38.5t-31.5 -59.5t-11.5 -76.5t11 -76t30.5 -58.5t47.5 -38t61 -13.5q34 0 62.5 14.5
t51.5 34.5l36 -55q-33 -29 -73 -45.5t-84 -16.5zM185 -226l-8 40q63 5 86 16.5t23 33.5q0 20 -17 31t-60 17l44 91h53l-29 -67q35 -8 54 -24t19 -47q0 -44 -42.5 -65.5t-122.5 -25.5z" />
    <glyph glyph-name="egrave" unicode="&#xe8;" horiz-adv-x="496" 
d="M279 -12q-49 0 -91.5 17.5t-74 50t-49.5 79.5t-18 107t18.5 107.5t49 80.5t69.5 50.5t81 17.5q46 0 82.5 -16t61 -46t37.5 -72t13 -94q0 -13 -0.5 -25.5t-2.5 -21.5h-328q5 -78 48.5 -123.5t113.5 -45.5q35 0 64.5 10.5t56.5 27.5l29 -54q-32 -20 -71 -35t-89 -15z
M126 282h260q0 74 -31.5 112.5t-88.5 38.5q-26 0 -49.5 -10t-42.5 -29.5t-31.5 -47.5t-16.5 -64zM279 573l-157 153l58 55l141 -167z" />
    <glyph glyph-name="eacute" unicode="&#xe9;" horiz-adv-x="496" 
d="M279 -12q-49 0 -91.5 17.5t-74 50t-49.5 79.5t-18 107t18.5 107.5t49 80.5t69.5 50.5t81 17.5q46 0 82.5 -16t61 -46t37.5 -72t13 -94q0 -13 -0.5 -25.5t-2.5 -21.5h-328q5 -78 48.5 -123.5t113.5 -45.5q35 0 64.5 10.5t56.5 27.5l29 -54q-32 -20 -71 -35t-89 -15z
M126 282h260q0 74 -31.5 112.5t-88.5 38.5q-26 0 -49.5 -10t-42.5 -29.5t-31.5 -47.5t-16.5 -64zM251 573l-42 41l141 167l58 -55z" />
    <glyph glyph-name="ecircumflex" unicode="&#xea;" horiz-adv-x="496" 
d="M279 -12q-49 0 -91.5 17.5t-74 50t-49.5 79.5t-18 107t18.5 107.5t49 80.5t69.5 50.5t81 17.5q46 0 82.5 -16t61 -46t37.5 -72t13 -94q0 -13 -0.5 -25.5t-2.5 -21.5h-328q5 -78 48.5 -123.5t113.5 -45.5q35 0 64.5 10.5t56.5 27.5l29 -54q-32 -20 -71 -35t-89 -15z
M126 282h260q0 74 -31.5 112.5t-88.5 38.5q-26 0 -49.5 -10t-42.5 -29.5t-31.5 -47.5t-16.5 -64zM110 600l114 140h82l114 -140l-35 -32l-118 113h-4l-118 -113z" />
    <glyph glyph-name="edieresis" unicode="&#xeb;" horiz-adv-x="496" 
d="M279 -12q-49 0 -91.5 17.5t-74 50t-49.5 79.5t-18 107t18.5 107.5t49 80.5t69.5 50.5t81 17.5q46 0 82.5 -16t61 -46t37.5 -72t13 -94q0 -13 -0.5 -25.5t-2.5 -21.5h-328q5 -78 48.5 -123.5t113.5 -45.5q35 0 64.5 10.5t56.5 27.5l29 -54q-32 -20 -71 -35t-89 -15z
M126 282h260q0 74 -31.5 112.5t-88.5 38.5q-26 0 -49.5 -10t-42.5 -29.5t-31.5 -47.5t-16.5 -64zM169 587q-22 0 -36 14.5t-14 35.5t14 35.5t36 14.5q21 0 35 -14.5t14 -35.5t-14 -35.5t-35 -14.5zM361 587q-21 0 -35 14.5t-14 35.5t14 35.5t35 14.5q22 0 36 -14.5t14 -35.5
t-14 -35.5t-36 -14.5z" />
    <glyph glyph-name="igrave" unicode="&#xec;" horiz-adv-x="246" 
d="M82 0v486h82v-486h-82zM137 573l-157 153l58 55l141 -167z" />
    <glyph glyph-name="iacute" unicode="&#xed;" horiz-adv-x="246" 
d="M82 0v486h82v-486h-82zM109 573l-42 41l141 167l58 -55z" />
    <glyph glyph-name="icircumflex" unicode="&#xee;" horiz-adv-x="246" 
d="M82 0v486h82v-486h-82zM-32 600l114 140h82l114 -140l-35 -32l-118 113h-4l-118 -113z" />
    <glyph glyph-name="idieresis" unicode="&#xef;" horiz-adv-x="246" 
d="M82 0v486h82v-486h-82zM27 587q-22 0 -36 14.5t-14 35.5t14 35.5t36 14.5q21 0 35 -14.5t14 -35.5t-14 -35.5t-35 -14.5zM219 587q-21 0 -35 14.5t-14 35.5t14 35.5t35 14.5q22 0 36 -14.5t14 -35.5t-14 -35.5t-36 -14.5z" />
    <glyph glyph-name="eth" unicode="&#xf0;" horiz-adv-x="545" 
d="M269 -12q-42 0 -81 16t-69 46.5t-48 74t-18 97.5q0 51 16 92.5t43.5 71t65 45.5t81.5 16q38 0 73 -16t61 -50q-14 62 -41.5 108t-65.5 84l-141 -73l-24 41l127 65q-52 40 -112 72l38 52q36 -20 71 -42t67 -49l142 73l24 -41l-129 -66q60 -61 98 -145t38 -203
q0 -60 -15.5 -109.5t-44 -85t-68 -55t-88.5 -19.5zM271 56q34 0 59 14.5t42 40.5t25.5 62.5t8.5 80.5q0 14 -0.5 28t-1.5 27q-33 44 -66 59t-67 15q-33 0 -59 -12t-44 -34t-27.5 -51.5t-9.5 -63.5q0 -38 11 -68.5t30.5 -52t44.5 -33.5t54 -12z" />
    <glyph glyph-name="ntilde" unicode="&#xf1;" horiz-adv-x="547" 
d="M82 0v486h68l7 -70h3q35 35 73.5 58.5t89.5 23.5q77 0 112.5 -48t35.5 -142v-308h-82v297q0 69 -22 99.5t-70 30.5q-38 0 -67 -19t-66 -56v-352h-82zM364 577q-27 0 -46 13t-35 29t-30.5 29t-31.5 13q-23 0 -34 -22t-13 -57l-55 3q1 29 7.5 54t18.5 43t30.5 28.5
t44.5 10.5q27 0 46 -13t35 -29t30.5 -29t32.5 -13q22 0 33 22t13 57l55 -4q-1 -29 -7.5 -53.5t-18.5 -42.5t-30.5 -28.5t-44.5 -10.5z" />
    <glyph glyph-name="ograve" unicode="&#xf2;" horiz-adv-x="542" 
d="M271 -12q-45 0 -85.5 17t-71.5 49.5t-49.5 80t-18.5 107.5q0 61 18.5 108.5t49.5 80.5t71.5 50t85.5 17t85.5 -17t71.5 -50t49.5 -80.5t18.5 -108.5q0 -60 -18.5 -107.5t-49.5 -80t-71.5 -49.5t-85.5 -17zM271 56q31 0 57 13.5t44.5 38t28.5 58.5t10 76t-10 76.5
t-28.5 59.5t-44.5 38.5t-57 13.5t-57 -13.5t-44.5 -38.5t-28.5 -59.5t-10 -76.5t10 -76t28.5 -58.5t44.5 -38t57 -13.5zM285 573l-157 153l58 55l141 -167z" />
    <glyph glyph-name="oacute" unicode="&#xf3;" horiz-adv-x="542" 
d="M271 -12q-45 0 -85.5 17t-71.5 49.5t-49.5 80t-18.5 107.5q0 61 18.5 108.5t49.5 80.5t71.5 50t85.5 17t85.5 -17t71.5 -50t49.5 -80.5t18.5 -108.5q0 -60 -18.5 -107.5t-49.5 -80t-71.5 -49.5t-85.5 -17zM271 56q31 0 57 13.5t44.5 38t28.5 58.5t10 76t-10 76.5
t-28.5 59.5t-44.5 38.5t-57 13.5t-57 -13.5t-44.5 -38.5t-28.5 -59.5t-10 -76.5t10 -76t28.5 -58.5t44.5 -38t57 -13.5zM257 573l-42 41l141 167l58 -55z" />
    <glyph glyph-name="ocircumflex" unicode="&#xf4;" horiz-adv-x="542" 
d="M271 -12q-45 0 -85.5 17t-71.5 49.5t-49.5 80t-18.5 107.5q0 61 18.5 108.5t49.5 80.5t71.5 50t85.5 17t85.5 -17t71.5 -50t49.5 -80.5t18.5 -108.5q0 -60 -18.5 -107.5t-49.5 -80t-71.5 -49.5t-85.5 -17zM271 56q31 0 57 13.5t44.5 38t28.5 58.5t10 76t-10 76.5
t-28.5 59.5t-44.5 38.5t-57 13.5t-57 -13.5t-44.5 -38.5t-28.5 -59.5t-10 -76.5t10 -76t28.5 -58.5t44.5 -38t57 -13.5zM116 600l114 140h82l114 -140l-35 -32l-118 113h-4l-118 -113z" />
    <glyph glyph-name="otilde" unicode="&#xf5;" horiz-adv-x="542" 
d="M271 -12q-45 0 -85.5 17t-71.5 49.5t-49.5 80t-18.5 107.5q0 61 18.5 108.5t49.5 80.5t71.5 50t85.5 17t85.5 -17t71.5 -50t49.5 -80.5t18.5 -108.5q0 -60 -18.5 -107.5t-49.5 -80t-71.5 -49.5t-85.5 -17zM271 56q31 0 57 13.5t44.5 38t28.5 58.5t10 76t-10 76.5
t-28.5 59.5t-44.5 38.5t-57 13.5t-57 -13.5t-44.5 -38.5t-28.5 -59.5t-10 -76.5t10 -76t28.5 -58.5t44.5 -38t57 -13.5zM343 577q-27 0 -46 13t-35 29t-30.5 29t-31.5 13q-23 0 -34 -22t-13 -57l-55 3q1 29 7.5 54t18.5 43t30.5 28.5t44.5 10.5q27 0 46 -13t35 -29t30.5 -29
t32.5 -13q22 0 33 22t13 57l55 -4q-1 -29 -7.5 -53.5t-18.5 -42.5t-30.5 -28.5t-44.5 -10.5z" />
    <glyph glyph-name="odieresis" unicode="&#xf6;" horiz-adv-x="542" 
d="M271 -12q-45 0 -85.5 17t-71.5 49.5t-49.5 80t-18.5 107.5q0 61 18.5 108.5t49.5 80.5t71.5 50t85.5 17t85.5 -17t71.5 -50t49.5 -80.5t18.5 -108.5q0 -60 -18.5 -107.5t-49.5 -80t-71.5 -49.5t-85.5 -17zM271 56q31 0 57 13.5t44.5 38t28.5 58.5t10 76t-10 76.5
t-28.5 59.5t-44.5 38.5t-57 13.5t-57 -13.5t-44.5 -38.5t-28.5 -59.5t-10 -76.5t10 -76t28.5 -58.5t44.5 -38t57 -13.5zM175 587q-22 0 -36 14.5t-14 35.5t14 35.5t36 14.5q21 0 35 -14.5t14 -35.5t-14 -35.5t-35 -14.5zM367 587q-21 0 -35 14.5t-14 35.5t14 35.5t35 14.5
q22 0 36 -14.5t14 -35.5t-14 -35.5t-36 -14.5z" />
    <glyph glyph-name="divide" unicode="&#xf7;" horiz-adv-x="497" 
d="M34 299v62h429v-62h-429zM249 96q-23 0 -39 15t-16 39q0 23 16 38t39 15t38.5 -15t15.5 -38q0 -24 -15.5 -39t-38.5 -15zM249 456q-23 0 -39 15t-16 39q0 23 16 38t39 15t38.5 -15t15.5 -38q0 -24 -15.5 -39t-38.5 -15z" />
    <glyph glyph-name="oslash" unicode="&#xf8;" horiz-adv-x="542" 
d="M271 -12q-79 0 -139 49l-49 -60l-37 29l54 65q-25 32 -39.5 74.5t-14.5 96.5q0 61 18.5 108.5t49.5 80.5t71.5 50t85.5 17q38 0 74 -12.5t65 -37.5l50 61l36 -29l-54 -65q25 -32 39.5 -75.5t14.5 -97.5q0 -60 -18.5 -107.5t-49.5 -80t-71.5 -49.5t-85.5 -17zM127 246
q0 -67 23 -113l214 259q-37 40 -93 40q-31 0 -57.5 -13.5t-45.5 -38t-30 -59t-11 -75.5zM271 54q31 0 57.5 13.5t46 38t30 58.5t10.5 75q0 67 -24 114l-213 -260q39 -39 93 -39z" />
    <glyph glyph-name="ugrave" unicode="&#xf9;" horiz-adv-x="544" 
d="M224 -12q-78 0 -113.5 48t-35.5 142v308h83v-297q0 -69 21.5 -99.5t69.5 -30.5q38 0 67 19.5t64 62.5v345h82v-486h-68l-7 76h-3q-34 -40 -71.5 -64t-88.5 -24zM286 573l-157 153l58 55l141 -167z" />
    <glyph glyph-name="uacute" unicode="&#xfa;" horiz-adv-x="544" 
d="M224 -12q-78 0 -113.5 48t-35.5 142v308h83v-297q0 -69 21.5 -99.5t69.5 -30.5q38 0 67 19.5t64 62.5v345h82v-486h-68l-7 76h-3q-34 -40 -71.5 -64t-88.5 -24zM258 573l-42 41l141 167l58 -55z" />
    <glyph glyph-name="ucircumflex" unicode="&#xfb;" horiz-adv-x="544" 
d="M224 -12q-78 0 -113.5 48t-35.5 142v308h83v-297q0 -69 21.5 -99.5t69.5 -30.5q38 0 67 19.5t64 62.5v345h82v-486h-68l-7 76h-3q-34 -40 -71.5 -64t-88.5 -24zM117 600l114 140h82l114 -140l-35 -32l-118 113h-4l-118 -113z" />
    <glyph glyph-name="udieresis" unicode="&#xfc;" horiz-adv-x="544" 
d="M224 -12q-78 0 -113.5 48t-35.5 142v308h83v-297q0 -69 21.5 -99.5t69.5 -30.5q38 0 67 19.5t64 62.5v345h82v-486h-68l-7 76h-3q-34 -40 -71.5 -64t-88.5 -24zM176 587q-22 0 -36 14.5t-14 35.5t14 35.5t36 14.5q21 0 35 -14.5t14 -35.5t-14 -35.5t-35 -14.5zM368 587
q-21 0 -35 14.5t-14 35.5t14 35.5t35 14.5q22 0 36 -14.5t14 -35.5t-14 -35.5t-36 -14.5z" />
    <glyph glyph-name="yacute" unicode="&#xfd;" horiz-adv-x="467" 
d="M90 -209q-17 0 -31 2.5t-26 7.5l16 65l18 -4.5t19 -2.5q42 0 68.5 29.5t41.5 74.5l11 36l-195 487h85l99 -269q11 -32 23.5 -67.5t23.5 -69.5h4q11 33 21 69t20 68l87 269h80l-183 -526q-13 -36 -29 -67t-38 -53.5t-50 -35.5t-65 -13zM228 573l-42 41l141 167l58 -55z
" />
    <glyph glyph-name="thorn" unicode="&#xfe;" horiz-adv-x="555" 
d="M82 -205v917h82v-194l-1 -83q32 26 70 44.5t78 18.5q48 0 84.5 -17.5t61.5 -50t37.5 -78t12.5 -102.5q0 -62 -17 -110.5t-46 -82.5t-67 -51.5t-80 -17.5q-35 0 -68 14t-66 40l1 -83v-164h-82zM283 57q30 0 55.5 13.5t44 38t29 60.5t10.5 81q0 40 -7 73t-22.5 56.5
t-40 36.5t-58.5 13q-31 0 -62.5 -17t-67.5 -49v-255q33 -28 64 -39.5t55 -11.5z" />
    <glyph glyph-name="ydieresis" unicode="&#xff;" horiz-adv-x="467" 
d="M90 -209q-17 0 -31 2.5t-26 7.5l16 65l18 -4.5t19 -2.5q42 0 68.5 29.5t41.5 74.5l11 36l-195 487h85l99 -269q11 -32 23.5 -67.5t23.5 -69.5h4q11 33 21 69t20 68l87 269h80l-183 -526q-13 -36 -29 -67t-38 -53.5t-50 -35.5t-65 -13zM146 587q-22 0 -36 14.5t-14 35.5
t14 35.5t36 14.5q21 0 35 -14.5t14 -35.5t-14 -35.5t-35 -14.5zM338 587q-21 0 -35 14.5t-14 35.5t14 35.5t35 14.5q22 0 36 -14.5t14 -35.5t-14 -35.5t-36 -14.5z" />
    <glyph glyph-name="Amacron" unicode="&#x100;" horiz-adv-x="544" 
d="M203 367l-31 -100h197l-31 100q-18 55 -34 109.5t-32 111.5h-4q-15 -57 -31 -111.5t-34 -109.5zM3 0l222 656h94l222 -656h-89l-62 200h-239l-63 -200h-85zM137 735v57h268v-57h-268z" />
    <glyph glyph-name="amacron" unicode="&#x101;" horiz-adv-x="504" 
d="M194 -12q-61 0 -101.5 36t-40.5 102q0 80 71 122.5t227 59.5q0 23 -4.5 45t-15.5 39t-30.5 27.5t-49.5 10.5q-42 0 -79 -16t-66 -36l-32 57q34 22 83 42.5t108 20.5q89 0 129 -54.5t40 -145.5v-298h-68l-7 58h-3q-35 -29 -75 -49.5t-86 -20.5zM218 54q35 0 66 16.5
t66 48.5v135q-61 -8 -102.5 -19t-67 -26t-37 -34.5t-11.5 -42.5q0 -42 25 -60t61 -18zM129 601v57h266v-57h-266z" />
    <glyph glyph-name="Abreve" unicode="&#x102;" horiz-adv-x="544" 
d="M203 367l-31 -100h197l-31 100q-18 55 -34 109.5t-32 111.5h-4q-15 -57 -31 -111.5t-34 -109.5zM3 0l222 656h94l222 -656h-89l-62 200h-239l-63 -200h-85zM271 705q-35 0 -61 10.5t-44 28t-28 41t-13 49.5l50 8q6 -35 29.5 -59.5t66.5 -24.5t66.5 24.5t29.5 59.5l50 -8
q-3 -26 -13 -49.5t-28 -41t-44 -28t-61 -10.5z" />
    <glyph glyph-name="abreve" unicode="&#x103;" horiz-adv-x="504" 
d="M194 -12q-61 0 -101.5 36t-40.5 102q0 80 71 122.5t227 59.5q0 23 -4.5 45t-15.5 39t-30.5 27.5t-49.5 10.5q-42 0 -79 -16t-66 -36l-32 57q34 22 83 42.5t108 20.5q89 0 129 -54.5t40 -145.5v-298h-68l-7 58h-3q-35 -29 -75 -49.5t-86 -20.5zM218 54q35 0 66 16.5
t66 48.5v135q-61 -8 -102.5 -19t-67 -26t-37 -34.5t-11.5 -42.5q0 -42 25 -60t61 -18zM262 571q-40 0 -69 13t-47.5 34.5t-28 48.5t-11.5 55l51 8q3 -19 10.5 -37.5t20.5 -33.5t31.5 -24t42.5 -9t42.5 9t31.5 24t20.5 33.5t10.5 37.5l51 -8q-2 -28 -11.5 -55t-28.5 -48.5
t-47.5 -34.5t-68.5 -13z" />
    <glyph glyph-name="Aogonek" unicode="&#x104;" horiz-adv-x="544" 
d="M492 -212q-40 0 -68 22t-28 65q0 20 7 39t18 35t24 29t26 22h-19l-62 200h-239l-63 -200h-85l222 656h94l222 -656q-35 -14 -57.5 -45t-22.5 -62q0 -23 14 -34.5t32 -11.5q23 0 42 14l23 -45q-15 -11 -37.5 -19.5t-42.5 -8.5zM203 367l-31 -100h197l-31 100
q-18 55 -34 109.5t-32 111.5h-4q-15 -57 -31 -111.5t-34 -109.5z" />
    <glyph glyph-name="aogonek" unicode="&#x105;" horiz-adv-x="504" 
d="M376 -206q-38 0 -64.5 21.5t-26.5 63.5q0 20 7 38.5t18.5 34.5t26 29.5t28.5 22.5l-7 54h-3q-35 -29 -75 -49.5t-86 -20.5q-61 0 -101.5 36t-40.5 102q0 80 71 122.5t227 59.5q0 23 -4.5 45t-15.5 39t-30.5 27.5t-49.5 10.5q-42 0 -79 -16t-66 -36l-32 57q34 22 83 42.5
t108 20.5q89 0 129 -54.5t40 -145.5v-298q-42 -17 -64.5 -46.5t-22.5 -58.5q0 -23 14 -34.5t32 -11.5q12 0 22 3.5t19 9.5l21 -41q-14 -11 -36.5 -19t-41.5 -8zM218 54q35 0 66 16.5t66 48.5v135q-61 -8 -102.5 -19t-67 -26t-37 -34.5t-11.5 -42.5q0 -42 25 -60t61 -18z" />
    <glyph glyph-name="Cacute" unicode="&#x106;" horiz-adv-x="571" 
d="M338 -12q-62 0 -114 23t-90.5 66.5t-60 107t-21.5 143.5q0 79 22 142t61 107t92 67.5t116 23.5q60 0 105.5 -24.5t74.5 -56.5l-45 -54q-26 28 -59 45t-75 17q-47 0 -85 -18.5t-65 -53t-41.5 -83.5t-14.5 -110q0 -62 14.5 -111.5t40.5 -84.5t63.5 -54t84.5 -19
q48 0 84 19.5t68 54.5l46 -52q-39 -45 -88 -70t-113 -25zM313 697l-37 42l142 128l47 -55z" />
    <glyph glyph-name="cacute" unicode="&#x107;" horiz-adv-x="456" 
d="M274 -12q-48 0 -90 17t-72.5 49.5t-48 80t-17.5 107.5q0 61 19 108.5t51 80.5t74.5 50t89.5 17q48 0 82 -17t60 -40l-42 -54q-21 19 -44.5 31t-52.5 12q-33 0 -61 -13.5t-48 -38.5t-31.5 -59.5t-11.5 -76.5t11 -76t30.5 -58.5t47.5 -38t61 -13.5q34 0 62.5 14.5
t51.5 34.5l36 -55q-33 -29 -73 -45.5t-84 -16.5zM265 573l-42 41l141 167l58 -55z" />
    <glyph glyph-name="Ccircumflex" unicode="&#x108;" horiz-adv-x="571" 
d="M338 -12q-62 0 -114 23t-90.5 66.5t-60 107t-21.5 143.5q0 79 22 142t61 107t92 67.5t116 23.5q60 0 105.5 -24.5t74.5 -56.5l-45 -54q-26 28 -59 45t-75 17q-47 0 -85 -18.5t-65 -53t-41.5 -83.5t-14.5 -110q0 -62 14.5 -111.5t40.5 -84.5t63.5 -54t84.5 -19
q48 0 84 19.5t68 54.5l46 -52q-39 -45 -88 -70t-113 -25zM182 725l105 113h86l105 -113l-36 -26l-110 93h-4l-110 -93z" />
    <glyph glyph-name="ccircumflex" unicode="&#x109;" horiz-adv-x="456" 
d="M274 -12q-48 0 -90 17t-72.5 49.5t-48 80t-17.5 107.5q0 61 19 108.5t51 80.5t74.5 50t89.5 17q48 0 82 -17t60 -40l-42 -54q-21 19 -44.5 31t-52.5 12q-33 0 -61 -13.5t-48 -38.5t-31.5 -59.5t-11.5 -76.5t11 -76t30.5 -58.5t47.5 -38t61 -13.5q34 0 62.5 14.5
t51.5 34.5l36 -55q-33 -29 -73 -45.5t-84 -16.5zM124 600l114 140h82l114 -140l-35 -32l-118 113h-4l-118 -113z" />
    <glyph glyph-name="Cdotaccent" unicode="&#x10a;" horiz-adv-x="571" 
d="M338 -12q-62 0 -114 23t-90.5 66.5t-60 107t-21.5 143.5q0 79 22 142t61 107t92 67.5t116 23.5q60 0 105.5 -24.5t74.5 -56.5l-45 -54q-26 28 -59 45t-75 17q-47 0 -85 -18.5t-65 -53t-41.5 -83.5t-14.5 -110q0 -62 14.5 -111.5t40.5 -84.5t63.5 -54t84.5 -19
q48 0 84 19.5t68 54.5l46 -52q-39 -45 -88 -70t-113 -25zM330 714q-24 0 -40.5 15t-16.5 39q0 23 16.5 38t40.5 15t40.5 -15t16.5 -38q0 -24 -16.5 -39t-40.5 -15z" />
    <glyph glyph-name="cdotaccent" unicode="&#x10b;" horiz-adv-x="456" 
d="M274 -12q-48 0 -90 17t-72.5 49.5t-48 80t-17.5 107.5q0 61 19 108.5t51 80.5t74.5 50t89.5 17q48 0 82 -17t60 -40l-42 -54q-21 19 -44.5 31t-52.5 12q-33 0 -61 -13.5t-48 -38.5t-31.5 -59.5t-11.5 -76.5t11 -76t30.5 -58.5t47.5 -38t61 -13.5q34 0 62.5 14.5
t51.5 34.5l36 -55q-33 -29 -73 -45.5t-84 -16.5zM279 586q-23 0 -38.5 15t-15.5 39q0 23 15.5 38.5t38.5 15.5t38.5 -15.5t15.5 -38.5q0 -24 -15.5 -39t-38.5 -15z" />
    <glyph glyph-name="Ccaron" unicode="&#x10c;" horiz-adv-x="571" 
d="M338 -12q-62 0 -114 23t-90.5 66.5t-60 107t-21.5 143.5q0 79 22 142t61 107t92 67.5t116 23.5q60 0 105.5 -24.5t74.5 -56.5l-45 -54q-26 28 -59 45t-75 17q-47 0 -85 -18.5t-65 -53t-41.5 -83.5t-14.5 -110q0 -62 14.5 -111.5t40.5 -84.5t63.5 -54t84.5 -19
q48 0 84 19.5t68 54.5l46 -52q-39 -45 -88 -70t-113 -25zM287 706l-105 113l36 26l110 -92h4l110 92l36 -26l-105 -113h-86z" />
    <glyph glyph-name="ccaron" unicode="&#x10d;" horiz-adv-x="456" 
d="M274 -12q-48 0 -90 17t-72.5 49.5t-48 80t-17.5 107.5q0 61 19 108.5t51 80.5t74.5 50t89.5 17q48 0 82 -17t60 -40l-42 -54q-21 19 -44.5 31t-52.5 12q-33 0 -61 -13.5t-48 -38.5t-31.5 -59.5t-11.5 -76.5t11 -76t30.5 -58.5t47.5 -38t61 -13.5q34 0 62.5 14.5
t51.5 34.5l36 -55q-33 -29 -73 -45.5t-84 -16.5zM238 574l-114 140l35 32l118 -113h4l118 113l35 -32l-114 -140h-82z" />
    <glyph glyph-name="Dcaron" unicode="&#x10e;" horiz-adv-x="615" 
d="M90 0v656h164q152 0 231 -84t79 -241q0 -78 -20 -139.5t-59 -104t-96 -65t-131 -22.5h-168zM173 68h75q115 0 172.5 69t57.5 194t-57.5 191t-172.5 66h-75v-520zM264 706l-105 113l36 26l110 -92h4l110 92l36 -26l-105 -113h-86z" />
    <glyph glyph-name="dcaron" unicode="&#x10f;" horiz-adv-x="573" 
d="M248 -12q-92 0 -146.5 66t-54.5 188q0 59 17.5 106.5t46.5 80.5t67 51t80 18t73 -15t63 -41l-4 83v187h83v-712h-68l-7 57h-3q-29 -28 -66.5 -48.5t-80.5 -20.5zM266 57q34 0 64 16.5t60 50.5v254q-31 28 -59.5 39.5t-58.5 11.5q-29 0 -54.5 -13.5t-44.5 -38t-30 -58.5
t-11 -76q0 -88 35 -137t99 -49zM530 548l-4 212h59l-1 -57l-14 -155h-40z" />
    <glyph glyph-name="Dcroat" unicode="&#x110;" horiz-adv-x="638" 
d="M33 321v43l79 4v288h164q152 0 231 -84t79 -241q0 -78 -20 -139.5t-59 -104t-96 -65t-131 -22.5h-168v321h-79zM195 68h75q115 0 172.5 69t57.5 194t-57.5 191t-172.5 66h-75v-220h149v-47h-149v-253z" />
    <glyph glyph-name="dcroat" unicode="&#x111;" horiz-adv-x="555" 
d="M248 -12q-92 0 -146.5 61.5t-54.5 173.5q0 54 17.5 97.5t46.5 74t67 47.5t80 17t73 -15.5t63 -41.5l-4 84v85h-161v48h161v93h83v-93h72v-43l-72 -5v-571h-70l-6 55h-3q-28 -28 -65 -47.5t-81 -19.5zM266 57q34 0 64 16.5t60 50.5v215q-31 28 -59.5 39.5t-58.5 11.5
q-29 0 -54.5 -12.5t-44.5 -34.5t-30 -52.5t-11 -66.5q0 -77 35 -122t99 -45z" />
    <glyph glyph-name="Emacron" unicode="&#x112;" horiz-adv-x="527" 
d="M90 0v656h378v-70h-295v-206h249v-71h-249v-238h305v-71h-388zM150 735v57h268v-57h-268z" />
    <glyph glyph-name="emacron" unicode="&#x113;" horiz-adv-x="496" 
d="M279 -12q-49 0 -91.5 17.5t-74 50t-49.5 79.5t-18 107t18.5 107.5t49 80.5t69.5 50.5t81 17.5q46 0 82.5 -16t61 -46t37.5 -72t13 -94q0 -13 -0.5 -25.5t-2.5 -21.5h-328q5 -78 48.5 -123.5t113.5 -45.5q35 0 64.5 10.5t56.5 27.5l29 -54q-32 -20 -71 -35t-89 -15z
M126 282h260q0 74 -31.5 112.5t-88.5 38.5q-26 0 -49.5 -10t-42.5 -29.5t-31.5 -47.5t-16.5 -64zM132 601v57h266v-57h-266z" />
    <glyph glyph-name="Ebreve" unicode="&#x114;" horiz-adv-x="527" 
d="M90 0v656h378v-70h-295v-206h249v-71h-249v-238h305v-71h-388zM284 705q-35 0 -61 10.5t-44 28t-28 41t-13 49.5l50 8q6 -35 29.5 -59.5t66.5 -24.5t66.5 24.5t29.5 59.5l50 -8q-3 -26 -13 -49.5t-28 -41t-44 -28t-61 -10.5z" />
    <glyph glyph-name="ebreve" unicode="&#x115;" horiz-adv-x="496" 
d="M279 -12q-49 0 -91.5 17.5t-74 50t-49.5 79.5t-18 107t18.5 107.5t49 80.5t69.5 50.5t81 17.5q46 0 82.5 -16t61 -46t37.5 -72t13 -94q0 -13 -0.5 -25.5t-2.5 -21.5h-328q5 -78 48.5 -123.5t113.5 -45.5q35 0 64.5 10.5t56.5 27.5l29 -54q-32 -20 -71 -35t-89 -15z
M126 282h260q0 74 -31.5 112.5t-88.5 38.5q-26 0 -49.5 -10t-42.5 -29.5t-31.5 -47.5t-16.5 -64zM265 571q-40 0 -69 13t-47.5 34.5t-28 48.5t-11.5 55l51 8q3 -19 10.5 -37.5t20.5 -33.5t31.5 -24t42.5 -9t42.5 9t31.5 24t20.5 33.5t10.5 37.5l51 -8q-2 -28 -11.5 -55
t-28.5 -48.5t-47.5 -34.5t-68.5 -13z" />
    <glyph glyph-name="Edotaccent" unicode="&#x116;" horiz-adv-x="527" 
d="M90 0v656h378v-70h-295v-206h249v-71h-249v-238h305v-71h-388zM284 714q-24 0 -40.5 15t-16.5 39q0 23 16.5 38t40.5 15t40.5 -15t16.5 -38q0 -24 -16.5 -39t-40.5 -15z" />
    <glyph glyph-name="edotaccent" unicode="&#x117;" horiz-adv-x="496" 
d="M279 -12q-49 0 -91.5 17.5t-74 50t-49.5 79.5t-18 107t18.5 107.5t49 80.5t69.5 50.5t81 17.5q46 0 82.5 -16t61 -46t37.5 -72t13 -94q0 -13 -0.5 -25.5t-2.5 -21.5h-328q5 -78 48.5 -123.5t113.5 -45.5q35 0 64.5 10.5t56.5 27.5l29 -54q-32 -20 -71 -35t-89 -15z
M126 282h260q0 74 -31.5 112.5t-88.5 38.5q-26 0 -49.5 -10t-42.5 -29.5t-31.5 -47.5t-16.5 -64zM265 586q-23 0 -38.5 15t-15.5 39q0 23 15.5 38.5t38.5 15.5t38.5 -15.5t15.5 -38.5q0 -24 -15.5 -39t-38.5 -15z" />
    <glyph glyph-name="Eogonek" unicode="&#x118;" horiz-adv-x="527" 
d="M414 -212q-40 0 -68 22t-28 65q0 42 23.5 74.5t51.5 50.5h-303v656h378v-70h-295v-206h249v-71h-249v-238h305v-71h-3q-17 -2 -33.5 -11.5t-29.5 -24t-21 -33t-8 -38.5q0 -23 15 -34.5t33 -11.5q21 0 40 14l23 -45q-14 -11 -37 -19.5t-43 -8.5z" />
    <glyph glyph-name="eogonek" unicode="&#x119;" horiz-adv-x="496" 
d="M358 -206q-38 0 -64 21.5t-26 63.5q0 19 5.5 36t14.5 32t19.5 27t20.5 21q-13 -5 -25 -6t-24 -1q-49 0 -91.5 17.5t-74 50t-49.5 79.5t-18 107t18.5 107.5t49 80.5t69.5 50.5t81 17.5q46 0 82.5 -16t61 -46t37.5 -72t13 -94q0 -13 -0.5 -25.5t-2.5 -21.5h-328
q5 -78 48.5 -123.5t113.5 -45.5q35 0 64.5 10.5t56.5 27.5l29 -54q-33 -23 -54 -42.5t-34 -36.5t-18 -32.5t-5 -31.5q0 -23 14 -34.5t33 -11.5q12 0 21.5 3.5t18.5 9.5l21 -41q-14 -11 -36.5 -19t-41.5 -8zM126 282h260q0 74 -31.5 112.5t-88.5 38.5q-26 0 -49.5 -10
t-42.5 -29.5t-31.5 -47.5t-16.5 -64z" />
    <glyph glyph-name="Ecaron" unicode="&#x11a;" horiz-adv-x="527" 
d="M90 0v656h378v-70h-295v-206h249v-71h-249v-238h305v-71h-388zM241 706l-105 113l36 26l110 -92h4l110 92l36 -26l-105 -113h-86z" />
    <glyph glyph-name="ecaron" unicode="&#x11b;" horiz-adv-x="496" 
d="M279 -12q-49 0 -91.5 17.5t-74 50t-49.5 79.5t-18 107t18.5 107.5t49 80.5t69.5 50.5t81 17.5q46 0 82.5 -16t61 -46t37.5 -72t13 -94q0 -13 -0.5 -25.5t-2.5 -21.5h-328q5 -78 48.5 -123.5t113.5 -45.5q35 0 64.5 10.5t56.5 27.5l29 -54q-32 -20 -71 -35t-89 -15z
M126 282h260q0 74 -31.5 112.5t-88.5 38.5q-26 0 -49.5 -10t-42.5 -29.5t-31.5 -47.5t-16.5 -64zM224 574l-114 140l35 32l118 -113h4l118 113l35 -32l-114 -140h-82z" />
    <glyph glyph-name="Gcircumflex" unicode="&#x11c;" horiz-adv-x="617" 
d="M348 -12q-65 0 -119.5 23t-93.5 66.5t-61 107t-22 143.5q0 79 22.5 142t62.5 107t95.5 67.5t120.5 23.5q34 0 62.5 -7t52 -18.5t42 -26t32.5 -29.5l-46 -54q-25 26 -58 44t-83 18t-90 -18.5t-68 -53t-43.5 -83.5t-15.5 -110q0 -62 14.5 -111.5t42 -84.5t68 -54t93.5 -19
q35 0 66.5 10.5t51.5 28.5v171h-139v69h215v-276q-32 -33 -84 -54.5t-118 -21.5zM205 725l105 113h86l105 -113l-36 -26l-110 93h-4l-110 -93z" />
    <glyph glyph-name="gcircumflex" unicode="&#x11d;" horiz-adv-x="504" 
d="M246 -224q-45 0 -82 8.5t-63.5 25.5t-41 41t-14.5 56q0 31 19 59t52 51v4q-18 11 -30.5 30.5t-12.5 48.5q0 31 17 54t36 36v4q-24 20 -43.5 53.5t-19.5 77.5q0 40 14.5 72t39.5 54.5t58.5 34.5t70.5 12q20 0 37.5 -3.5t31.5 -8.5h169v-63h-100q17 -17 28.5 -43t11.5 -57
q0 -39 -14 -70.5t-38 -53t-56.5 -33.5t-69.5 -12q-18 0 -37 4.5t-36 12.5q-13 -11 -22 -24.5t-9 -33.5q0 -23 18 -38t68 -15h94q85 0 127.5 -27.5t42.5 -88.5q0 -34 -17 -64.5t-49 -53.5t-77.5 -36.5t-102.5 -13.5zM246 209q21 0 39.5 8t33 23t22.5 36.5t8 48.5
q0 54 -30 83.5t-73 29.5t-73 -29.5t-30 -83.5q0 -27 8 -48.5t22.5 -36.5t33 -23t39.5 -8zM258 -167q35 0 63.5 8.5t48.5 22t31 31.5t11 37q0 34 -25 47t-73 13h-84q-14 0 -30.5 1.5t-32.5 6.5q-26 -19 -38 -40t-12 -42q0 -39 37.5 -62t103.5 -23zM112 600l114 140h82
l114 -140l-35 -32l-118 113h-4l-118 -113z" />
    <glyph glyph-name="Gbreve" unicode="&#x11e;" horiz-adv-x="617" 
d="M348 -12q-65 0 -119.5 23t-93.5 66.5t-61 107t-22 143.5q0 79 22.5 142t62.5 107t95.5 67.5t120.5 23.5q34 0 62.5 -7t52 -18.5t42 -26t32.5 -29.5l-46 -54q-25 26 -58 44t-83 18t-90 -18.5t-68 -53t-43.5 -83.5t-15.5 -110q0 -62 14.5 -111.5t42 -84.5t68 -54t93.5 -19
q35 0 66.5 10.5t51.5 28.5v171h-139v69h215v-276q-32 -33 -84 -54.5t-118 -21.5zM353 705q-35 0 -61 10.5t-44 28t-28 41t-13 49.5l50 8q6 -35 29.5 -59.5t66.5 -24.5t66.5 24.5t29.5 59.5l50 -8q-3 -26 -13 -49.5t-28 -41t-44 -28t-61 -10.5z" />
    <glyph glyph-name="gbreve" unicode="&#x11f;" horiz-adv-x="504" 
d="M246 -224q-45 0 -82 8.5t-63.5 25.5t-41 41t-14.5 56q0 31 19 59t52 51v4q-18 11 -30.5 30.5t-12.5 48.5q0 31 17 54t36 36v4q-24 20 -43.5 53.5t-19.5 77.5q0 40 14.5 72t39.5 54.5t58.5 34.5t70.5 12q20 0 37.5 -3.5t31.5 -8.5h169v-63h-100q17 -17 28.5 -43t11.5 -57
q0 -39 -14 -70.5t-38 -53t-56.5 -33.5t-69.5 -12q-18 0 -37 4.5t-36 12.5q-13 -11 -22 -24.5t-9 -33.5q0 -23 18 -38t68 -15h94q85 0 127.5 -27.5t42.5 -88.5q0 -34 -17 -64.5t-49 -53.5t-77.5 -36.5t-102.5 -13.5zM246 209q21 0 39.5 8t33 23t22.5 36.5t8 48.5
q0 54 -30 83.5t-73 29.5t-73 -29.5t-30 -83.5q0 -27 8 -48.5t22.5 -36.5t33 -23t39.5 -8zM258 -167q35 0 63.5 8.5t48.5 22t31 31.5t11 37q0 34 -25 47t-73 13h-84q-14 0 -30.5 1.5t-32.5 6.5q-26 -19 -38 -40t-12 -42q0 -39 37.5 -62t103.5 -23zM267 571q-40 0 -69 13
t-47.5 34.5t-28 48.5t-11.5 55l51 8q3 -19 10.5 -37.5t20.5 -33.5t31.5 -24t42.5 -9t42.5 9t31.5 24t20.5 33.5t10.5 37.5l51 -8q-2 -28 -11.5 -55t-28.5 -48.5t-47.5 -34.5t-68.5 -13z" />
    <glyph glyph-name="Gdotaccent" unicode="&#x120;" horiz-adv-x="617" 
d="M348 -12q-65 0 -119.5 23t-93.5 66.5t-61 107t-22 143.5q0 79 22.5 142t62.5 107t95.5 67.5t120.5 23.5q34 0 62.5 -7t52 -18.5t42 -26t32.5 -29.5l-46 -54q-25 26 -58 44t-83 18t-90 -18.5t-68 -53t-43.5 -83.5t-15.5 -110q0 -62 14.5 -111.5t42 -84.5t68 -54t93.5 -19
q35 0 66.5 10.5t51.5 28.5v171h-139v69h215v-276q-32 -33 -84 -54.5t-118 -21.5zM353 714q-24 0 -40.5 15t-16.5 39q0 23 16.5 38t40.5 15t40.5 -15t16.5 -38q0 -24 -16.5 -39t-40.5 -15z" />
    <glyph glyph-name="gdotaccent" unicode="&#x121;" horiz-adv-x="504" 
d="M246 -224q-45 0 -82 8.5t-63.5 25.5t-41 41t-14.5 56q0 31 19 59t52 51v4q-18 11 -30.5 30.5t-12.5 48.5q0 31 17 54t36 36v4q-24 20 -43.5 53.5t-19.5 77.5q0 40 14.5 72t39.5 54.5t58.5 34.5t70.5 12q20 0 37.5 -3.5t31.5 -8.5h169v-63h-100q17 -17 28.5 -43t11.5 -57
q0 -39 -14 -70.5t-38 -53t-56.5 -33.5t-69.5 -12q-18 0 -37 4.5t-36 12.5q-13 -11 -22 -24.5t-9 -33.5q0 -23 18 -38t68 -15h94q85 0 127.5 -27.5t42.5 -88.5q0 -34 -17 -64.5t-49 -53.5t-77.5 -36.5t-102.5 -13.5zM246 209q21 0 39.5 8t33 23t22.5 36.5t8 48.5
q0 54 -30 83.5t-73 29.5t-73 -29.5t-30 -83.5q0 -27 8 -48.5t22.5 -36.5t33 -23t39.5 -8zM258 -167q35 0 63.5 8.5t48.5 22t31 31.5t11 37q0 34 -25 47t-73 13h-84q-14 0 -30.5 1.5t-32.5 6.5q-26 -19 -38 -40t-12 -42q0 -39 37.5 -62t103.5 -23zM267 586q-23 0 -38.5 15
t-15.5 39q0 23 15.5 38.5t38.5 15.5t38.5 -15.5t15.5 -38.5q0 -24 -15.5 -39t-38.5 -15z" />
    <glyph glyph-name="uni0122" unicode="&#x122;" horiz-adv-x="617" 
d="M348 -12q-65 0 -119.5 23t-93.5 66.5t-61 107t-22 143.5q0 79 22.5 142t62.5 107t95.5 67.5t120.5 23.5q34 0 62.5 -7t52 -18.5t42 -26t32.5 -29.5l-46 -54q-25 26 -58 44t-83 18t-90 -18.5t-68 -53t-43.5 -83.5t-15.5 -110q0 -62 14.5 -111.5t42 -84.5t68 -54t93.5 -19
q35 0 66.5 10.5t51.5 28.5v171h-139v69h215v-276q-32 -33 -84 -54.5t-118 -21.5zM261 -226l-8 40q63 5 86 16.5t23 31.5t-18 29.5t-53 12.5l18 38q65 -8 91 -25.5t26 -51.5q0 -44 -42.5 -65.5t-122.5 -25.5z" />
    <glyph glyph-name="uni0123" unicode="&#x123;" horiz-adv-x="504" 
d="M246 -224q-45 0 -82 8.5t-63.5 25.5t-41 41t-14.5 56q0 31 19 59t52 51v4q-18 11 -30.5 30.5t-12.5 48.5q0 31 17 54t36 36v4q-24 20 -43.5 53.5t-19.5 77.5q0 40 14.5 72t39.5 54.5t58.5 34.5t70.5 12q20 0 37.5 -3.5t31.5 -8.5h169v-63h-100q17 -17 28.5 -43t11.5 -57
q0 -39 -14 -70.5t-38 -53t-56.5 -33.5t-69.5 -12q-18 0 -37 4.5t-36 12.5q-13 -11 -22 -24.5t-9 -33.5q0 -23 18 -38t68 -15h94q85 0 127.5 -27.5t42.5 -88.5q0 -34 -17 -64.5t-49 -53.5t-77.5 -36.5t-102.5 -13.5zM246 209q21 0 39.5 8t33 23t22.5 36.5t8 48.5
q0 54 -30 83.5t-73 29.5t-73 -29.5t-30 -83.5q0 -27 8 -48.5t22.5 -36.5t33 -23t39.5 -8zM258 -167q35 0 63.5 8.5t48.5 22t31 31.5t11 37q0 34 -25 47t-73 13h-84q-14 0 -30.5 1.5t-32.5 6.5q-26 -19 -38 -40t-12 -42q0 -39 37.5 -62t103.5 -23zM306 575q-65 7 -91 25
t-26 52q0 44 42.5 65.5t122.5 26.5l8 -41q-63 -4 -86 -15.5t-23 -32.5q0 -20 18 -29.5t53 -12.5z" />
    <glyph glyph-name="Hcircumflex" unicode="&#x124;" horiz-adv-x="652" 
d="M90 0v656h83v-275h305v275h84v-656h-84v309h-305v-309h-83zM178 725l105 113h86l105 -113l-36 -26l-110 93h-4l-110 -93z" />
    <glyph glyph-name="hcircumflex" unicode="&#x125;" horiz-adv-x="544" 
d="M82 0v712h82v-194l-3 -100q35 33 73 56.5t89 23.5q77 0 112.5 -48t35.5 -142v-308h-82v297q0 69 -22 99.5t-70 30.5q-38 0 -67 -19t-66 -56v-352h-82zM-24 767l105 113h86l105 -113l-36 -26l-110 93h-4l-110 -93z" />
    <glyph glyph-name="Hbar" unicode="&#x126;" horiz-adv-x="687" 
d="M32 492v42l78 5v117h83v-117h305v117h84v-117h72v-47h-72v-492h-84v309h-305v-309h-83v492h-78zM193 381h305v111h-305v-111z" />
    <glyph glyph-name="hbar" unicode="&#x127;" horiz-adv-x="544" 
d="M82 0v571h-74v43l74 5v93h82v-93h182v-48h-182v-93l-3 -100q35 33 73 57t89 24q77 0 112.5 -48t35.5 -142v-269h-82v258q0 69 -22 99t-70 30q-38 0 -67 -18.5t-66 -55.5v-313h-82z" />
    <glyph glyph-name="Itilde" unicode="&#x128;" horiz-adv-x="263" 
d="M90 0v656h83v-656h-83zM206 709q-28 0 -48 11t-36.5 24.5t-31 24.5t-32.5 11q-19 0 -32 -17t-16 -49l-56 4q3 57 30 90t72 33q28 0 48 -11t36.5 -24.5t31 -24.5t32.5 -11q40 0 48 66l56 -4q-3 -58 -30 -90.5t-72 -32.5z" />
    <glyph glyph-name="itilde" unicode="&#x129;" horiz-adv-x="246" 
d="M82 0v486h82v-486h-82zM195 577q-27 0 -46 13t-35 29t-30.5 29t-31.5 13q-23 0 -34 -22t-13 -57l-55 3q1 29 7.5 54t18.5 43t30.5 28.5t44.5 10.5q27 0 46 -13t35 -29t30.5 -29t32.5 -13q22 0 33 22t13 57l55 -4q-1 -29 -7.5 -53.5t-18.5 -42.5t-30.5 -28.5t-44.5 -10.5z
" />
    <glyph glyph-name="Imacron" unicode="&#x12a;" horiz-adv-x="263" 
d="M90 0v656h83v-656h-83zM-3 735v57h268v-57h-268z" />
    <glyph glyph-name="imacron" unicode="&#x12b;" horiz-adv-x="246" 
d="M82 0v486h82v-486h-82zM-10 601v57h266v-57h-266z" />
    <glyph glyph-name="uni012C" unicode="&#x12c;" horiz-adv-x="263" 
d="M90 0v656h83v-656h-83zM131 705q-35 0 -61 10.5t-44 28t-28 41t-13 49.5l50 8q6 -35 29.5 -59.5t66.5 -24.5t66.5 24.5t29.5 59.5l50 -8q-3 -26 -13 -49.5t-28 -41t-44 -28t-61 -10.5z" />
    <glyph glyph-name="uni012D" unicode="&#x12d;" horiz-adv-x="246" 
d="M82 0v486h82v-486h-82zM124 571q-40 0 -69 13t-47.5 34.5t-28 48.5t-11.5 55l51 8q3 -19 10.5 -37.5t20.5 -33.5t31.5 -24t42.5 -9t42.5 9t31.5 24t20.5 33.5t10.5 37.5l51 -8q-2 -28 -11.5 -55t-28.5 -48.5t-47.5 -34.5t-68.5 -13z" />
    <glyph glyph-name="Iogonek" unicode="&#x12e;" horiz-adv-x="263" 
d="M139 -212q-40 0 -68 22t-28 65t21.5 73t45.5 52h-20v656h83v-656q-31 -24 -48 -50t-17 -57q0 -23 15 -34.5t32 -11.5q22 0 41 14l23 -45q-15 -11 -37.5 -19.5t-42.5 -8.5z" />
    <glyph glyph-name="iogonek" unicode="&#x12f;" horiz-adv-x="246" 
d="M129 -206q-38 0 -64.5 21.5t-26.5 63.5q0 40 21.5 70t42.5 51h-20v486h82v-486q-30 -22 -47.5 -49t-17.5 -56q0 -23 14 -34.5t33 -11.5q11 0 20.5 3.5t19.5 9.5l21 -41q-14 -11 -36.5 -19t-41.5 -8zM123 586q-24 0 -40.5 15t-16.5 38q0 24 16.5 38.5t40.5 14.5
q23 0 39.5 -14.5t16.5 -38.5q0 -23 -16.5 -38t-39.5 -15z" />
    <glyph glyph-name="Idotaccent" unicode="&#x130;" horiz-adv-x="263" 
d="M90 0v656h83v-656h-83zM131 714q-24 0 -40.5 15t-16.5 39q0 23 16.5 38t40.5 15t40.5 -15t16.5 -38q0 -24 -16.5 -39t-40.5 -15z" />
    <glyph glyph-name="dotlessi" unicode="&#x131;" horiz-adv-x="246" 
d="M82 0v486h82v-486h-82z" />
    <glyph glyph-name="uni0132" unicode="&#x132;" horiz-adv-x="526" 
d="M90 0v656h83v-656h-83zM302 -165q-23 0 -41 3.5t-31 8.5l16 66q10 -3 21.5 -6t24.5 -3q37 0 49 25.5t12 70.5v656h83v-659q0 -75 -31 -118.5t-103 -43.5z" />
    <glyph glyph-name="uni0133" unicode="&#x133;" horiz-adv-x="493" 
d="M82 0v486h82v-486h-82zM124 586q-24 0 -40.5 15t-16.5 38q0 24 16.5 38.5t40.5 14.5t40.5 -14.5t16.5 -38.5q0 -23 -16.5 -38t-40.5 -15zM278 -217q-23 0 -41 4t-31 9l17 62q9 -3 21 -5.5t25 -2.5q36 0 48 25t12 70v541h82v-541q0 -74 -30 -118t-103 -44zM371 586
q-24 0 -40.5 15t-16.5 38q0 24 16.5 38.5t40.5 14.5q23 0 39.5 -14.5t16.5 -38.5q0 -23 -16.5 -38t-39.5 -15z" />
    <glyph glyph-name="Jcircumflex" unicode="&#x134;" horiz-adv-x="480" 
d="M212 -12q-123 0 -181 105l60 42q22 -39 50 -56.5t63 -17.5q53 0 79 32.5t26 107.5v455h84v-463q0 -42 -10.5 -79.5t-32 -65.5t-56 -44t-82.5 -16zM200 725l105 113h86l105 -113l-36 -26l-110 93h-4l-110 -93z" />
    <glyph glyph-name="jcircumflex" unicode="&#x135;" horiz-adv-x="247" 
d="M32 -217q-23 0 -41 4t-31 9l17 62q9 -3 21 -5.5t25 -2.5q36 0 48 25t12 70v541h82v-541q0 -74 -30 -118t-103 -44zM-32 600l114 140h82l114 -140l-35 -32l-118 113h-4l-118 -113z" />
    <glyph glyph-name="uni0136" unicode="&#x136;" horiz-adv-x="579" 
d="M90 0v656h83v-329h3l273 329h94l-205 -250l237 -406h-93l-196 341l-113 -133v-208h-83zM238 -226l-8 40q63 5 86 16.5t23 31.5t-18 29.5t-53 12.5l18 38q65 -8 91 -25.5t26 -51.5q0 -44 -42.5 -65.5t-122.5 -25.5z" />
    <glyph glyph-name="uni0137" unicode="&#x137;" horiz-adv-x="495" 
d="M82 0v712h81v-482h3l207 256h91l-163 -195l185 -291h-90l-142 234l-91 -106v-128h-81zM184 -226l-8 40q63 5 86 16.5t23 31.5t-18 29.5t-53 12.5l18 38q65 -8 91 -25.5t26 -51.5q0 -44 -42.5 -65.5t-122.5 -25.5z" />
    <glyph glyph-name="kgreenlandic" unicode="&#x138;" horiz-adv-x="495" 
d="M82 0v486h82v-258h3l206 258h91l-161 -195l183 -291h-90l-142 231l-90 -106v-125h-82z" />
    <glyph glyph-name="Lacute" unicode="&#x139;" horiz-adv-x="486" 
d="M90 0v656h83v-585h287v-71h-370zM117 697l-37 42l142 128l47 -55z" />
    <glyph glyph-name="lacute" unicode="&#x13a;" horiz-adv-x="255" 
d="M169 -12q-47 0 -67 28t-20 82v614h82v-620q0 -20 7 -28t16 -8h7.5t10.5 2l11 -62q-8 -4 -19 -6t-28 -2zM102 749l-37 42l142 128l47 -55z" />
    <glyph glyph-name="uni013B" unicode="&#x13b;" horiz-adv-x="486" 
d="M90 0v656h83v-585h287v-71h-370zM201 -226l-8 40q63 5 86 16.5t23 31.5t-18 29.5t-53 12.5l18 38q65 -8 91 -25.5t26 -51.5q0 -44 -42.5 -65.5t-122.5 -25.5z" />
    <glyph glyph-name="uni013C" unicode="&#x13c;" horiz-adv-x="255" 
d="M169 -12q-47 0 -67 28t-20 82v614h82v-620q0 -20 7 -28t16 -8h7.5t10.5 2l11 -62q-8 -4 -19 -6t-28 -2zM70 -226l-8 40q63 5 86 16.5t23 31.5t-18 29.5t-53 12.5l18 38q65 -8 91 -25.5t26 -51.5q0 -44 -42.5 -65.5t-122.5 -25.5z" />
    <glyph glyph-name="Lcaron" unicode="&#x13d;" horiz-adv-x="486" 
d="M90 0v656h83v-585h287v-71h-370zM334 515l-4 212h59l-1 -57l-14 -155h-40z" />
    <glyph glyph-name="lcaron" unicode="&#x13e;" horiz-adv-x="270" 
d="M169 -12q-47 0 -67 28t-20 82v614h82v-620q0 -20 7 -28t16 -8h7.5t10.5 2l11 -62q-8 -4 -19 -6t-28 -2zM221 548l-4 212h59l-1 -57l-14 -155h-40z" />
    <glyph glyph-name="Ldot" unicode="&#x13f;" horiz-adv-x="486" 
d="M90 0v656h83v-585h287v-71h-370zM377 263q-25 0 -42.5 17.5t-17.5 44.5q0 29 17.5 46.5t42.5 17.5q24 0 41.5 -17.5t17.5 -46.5q0 -27 -17.5 -44.5t-41.5 -17.5z" />
    <glyph glyph-name="ldot" unicode="&#x140;" horiz-adv-x="362" 
d="M169 -12q-47 0 -67 28t-20 82v614h82v-620q0 -20 7 -28t16 -8h7.5t10.5 2l11 -62q-8 -4 -19 -6t-28 -2zM304 263q-25 0 -42.5 17.5t-17.5 44.5q0 29 17.5 46.5t42.5 17.5q24 0 41.5 -17.5t17.5 -46.5q0 -27 -17.5 -44.5t-41.5 -17.5z" />
    <glyph glyph-name="Lslash" unicode="&#x141;" horiz-adv-x="489" 
d="M24 200l-30 53l101 55v348h83v-311l176 95l30 -53l-206 -110v-206h287v-71h-370v240z" />
    <glyph glyph-name="lslash" unicode="&#x142;" horiz-adv-x="262" 
d="M173 -12q-47 0 -67 28t-20 82v233l-57 -36l-30 53l87 53v311h82v-268l54 35l30 -53l-84 -52v-282q0 -20 7 -28t16 -8h7.5t10.5 2l11 -62q-8 -4 -19 -6t-28 -2z" />
    <glyph glyph-name="Nacute" unicode="&#x143;" horiz-adv-x="647" 
d="M90 0v656h86l237 -412l71 -136h4q-3 50 -6.5 103.5t-3.5 105.5v339h79v-656h-86l-238 413l-71 135h-4q4 -50 7.5 -101.5t3.5 -103.5v-343h-79zM310 697l-37 42l142 128l47 -55z" />
    <glyph glyph-name="nacute" unicode="&#x144;" horiz-adv-x="547" 
d="M82 0v486h68l7 -70h3q35 35 73.5 58.5t89.5 23.5q77 0 112.5 -48t35.5 -142v-308h-82v297q0 69 -22 99.5t-70 30.5q-38 0 -67 -19t-66 -56v-352h-82zM278 573l-42 41l141 167l58 -55z" />
    <glyph glyph-name="uni0145" unicode="&#x145;" horiz-adv-x="647" 
d="M90 0v656h86l237 -412l71 -136h4q-3 50 -6.5 103.5t-3.5 105.5v339h79v-656h-86l-238 413l-71 135h-4q4 -50 7.5 -101.5t3.5 -103.5v-343h-79zM241 -226l-8 40q63 5 86 16.5t23 31.5t-18 29.5t-53 12.5l18 38q65 -8 91 -25.5t26 -51.5q0 -44 -42.5 -65.5t-122.5 -25.5z
" />
    <glyph glyph-name="uni0146" unicode="&#x146;" horiz-adv-x="547" 
d="M82 0v486h68l7 -70h3q35 35 73.5 58.5t89.5 23.5q77 0 112.5 -48t35.5 -142v-308h-82v297q0 69 -22 99.5t-70 30.5q-38 0 -67 -19t-66 -56v-352h-82zM192 -226l-8 40q63 5 86 16.5t23 31.5t-18 29.5t-53 12.5l18 38q65 -8 91 -25.5t26 -51.5q0 -44 -42.5 -65.5
t-122.5 -25.5z" />
    <glyph glyph-name="Ncaron" unicode="&#x147;" horiz-adv-x="647" 
d="M90 0v656h86l237 -412l71 -136h4q-3 50 -6.5 103.5t-3.5 105.5v339h79v-656h-86l-238 413l-71 135h-4q4 -50 7.5 -101.5t3.5 -103.5v-343h-79zM283 706l-105 113l36 26l110 -92h4l110 92l36 -26l-105 -113h-86z" />
    <glyph glyph-name="ncaron" unicode="&#x148;" horiz-adv-x="547" 
d="M82 0v486h68l7 -70h3q35 35 73.5 58.5t89.5 23.5q77 0 112.5 -48t35.5 -142v-308h-82v297q0 69 -22 99.5t-70 30.5q-38 0 -67 -19t-66 -56v-352h-82zM251 574l-114 140l35 32l118 -113h4l118 113l35 -32l-114 -140h-82z" />
    <glyph glyph-name="napostrophe" unicode="&#x149;" horiz-adv-x="775" 
d="M304 0v486h68l7 -70h3q35 35 73.5 58.5t89.5 23.5q77 0 112.5 -48t35.5 -142v-308h-82v297q0 69 -22 99.5t-70 30.5q-38 0 -67 -19t-66 -56v-352h-82zM86 431l-23 38q38 25 56.5 53.5t18.5 71.5q-3 -1 -8 -1q-21 0 -37 13t-16 37q0 26 15 41t38 15q29 0 46 -23.5
t17 -67.5q0 -60 -27.5 -103.5t-79.5 -73.5z" />
    <glyph glyph-name="uni014A" unicode="&#x14a;" horiz-adv-x="635" 
d="M406 -12q-20 0 -42 3.5t-36 11.5l20 75q11 -5 22.5 -8t27.5 -3q20 0 38 12.5t31.5 43.5t21.5 82.5t8 129.5q0 74 -11.5 124t-33 80t-51.5 43t-66 13q-20 0 -42 -7.5t-43.5 -20.5t-41.5 -31t-35 -39v-497h-83v656h81v-81q35 40 84 66.5t101 26.5q49 0 90.5 -17.5t72 -57
t47.5 -103t17 -155.5q0 -95 -12.5 -161t-36 -107t-56 -60t-72.5 -19z" />
    <glyph glyph-name="uni014B" unicode="&#x14b;" horiz-adv-x="547" 
d="M338 -183q-23 0 -41 4t-30 9l16 63q9 -3 21 -6t25 -3q36 0 48 25.5t12 70.5v317q0 69 -22 99.5t-70 30.5q-38 0 -67 -19t-66 -56v-352h-82v486h68l7 -70h3q35 35 73.5 58.5t89.5 23.5q77 0 112.5 -48t35.5 -142v-329q0 -74 -30 -118t-103 -44z" />
    <glyph glyph-name="Omacron" unicode="&#x14c;" horiz-adv-x="664" 
d="M332 -12q-62 0 -113.5 24t-88.5 68.5t-57.5 108t-20.5 142.5t20.5 141.5t57.5 106t88.5 66.5t113.5 23t113.5 -23.5t89 -67t58 -106t20.5 -140.5q0 -79 -20.5 -142.5t-58 -108t-89 -68.5t-113.5 -24zM332 61q44 0 79.5 19t61 54.5t39.5 85t14 111.5q0 61 -14 110
t-39.5 83t-61 52.5t-79.5 18.5t-79.5 -18.5t-61 -52.5t-39.5 -83t-14 -110q0 -62 14 -111.5t39.5 -85t61 -54.5t79.5 -19zM198 735v57h268v-57h-268z" />
    <glyph glyph-name="omacron" unicode="&#x14d;" horiz-adv-x="542" 
d="M271 -12q-45 0 -85.5 17t-71.5 49.5t-49.5 80t-18.5 107.5q0 61 18.5 108.5t49.5 80.5t71.5 50t85.5 17t85.5 -17t71.5 -50t49.5 -80.5t18.5 -108.5q0 -60 -18.5 -107.5t-49.5 -80t-71.5 -49.5t-85.5 -17zM271 56q31 0 57 13.5t44.5 38t28.5 58.5t10 76t-10 76.5
t-28.5 59.5t-44.5 38.5t-57 13.5t-57 -13.5t-44.5 -38.5t-28.5 -59.5t-10 -76.5t10 -76t28.5 -58.5t44.5 -38t57 -13.5zM138 601v57h266v-57h-266z" />
    <glyph glyph-name="uni014E" unicode="&#x14e;" horiz-adv-x="664" 
d="M332 -12q-62 0 -113.5 24t-88.5 68.5t-57.5 108t-20.5 142.5t20.5 141.5t57.5 106t88.5 66.5t113.5 23t113.5 -23.5t89 -67t58 -106t20.5 -140.5q0 -79 -20.5 -142.5t-58 -108t-89 -68.5t-113.5 -24zM332 61q44 0 79.5 19t61 54.5t39.5 85t14 111.5q0 61 -14 110
t-39.5 83t-61 52.5t-79.5 18.5t-79.5 -18.5t-61 -52.5t-39.5 -83t-14 -110q0 -62 14 -111.5t39.5 -85t61 -54.5t79.5 -19zM332 705q-35 0 -61 10.5t-44 28t-28 41t-13 49.5l50 8q6 -35 29.5 -59.5t66.5 -24.5t66.5 24.5t29.5 59.5l50 -8q-3 -26 -13 -49.5t-28 -41t-44 -28
t-61 -10.5z" />
    <glyph glyph-name="uni014F" unicode="&#x14f;" horiz-adv-x="542" 
d="M271 -12q-45 0 -85.5 17t-71.5 49.5t-49.5 80t-18.5 107.5q0 61 18.5 108.5t49.5 80.5t71.5 50t85.5 17t85.5 -17t71.5 -50t49.5 -80.5t18.5 -108.5q0 -60 -18.5 -107.5t-49.5 -80t-71.5 -49.5t-85.5 -17zM271 56q31 0 57 13.5t44.5 38t28.5 58.5t10 76t-10 76.5
t-28.5 59.5t-44.5 38.5t-57 13.5t-57 -13.5t-44.5 -38.5t-28.5 -59.5t-10 -76.5t10 -76t28.5 -58.5t44.5 -38t57 -13.5zM271 571q-40 0 -69 13t-47.5 34.5t-28 48.5t-11.5 55l51 8q3 -19 10.5 -37.5t20.5 -33.5t31.5 -24t42.5 -9t42.5 9t31.5 24t20.5 33.5t10.5 37.5l51 -8
q-2 -28 -11.5 -55t-28.5 -48.5t-47.5 -34.5t-68.5 -13z" />
    <glyph glyph-name="Ohungarumlaut" unicode="&#x150;" horiz-adv-x="664" 
d="M332 -12q-62 0 -113.5 24t-88.5 68.5t-57.5 108t-20.5 142.5t20.5 141.5t57.5 106t88.5 66.5t113.5 23t113.5 -23.5t89 -67t58 -106t20.5 -140.5q0 -79 -20.5 -142.5t-58 -108t-89 -68.5t-113.5 -24zM332 61q44 0 79.5 19t61 54.5t39.5 85t14 111.5q0 61 -14 110
t-39.5 83t-61 52.5t-79.5 18.5t-79.5 -18.5t-61 -52.5t-39.5 -83t-14 -110q0 -62 14 -111.5t39.5 -85t61 -54.5t79.5 -19zM230 724l92 152l56 -32l-105 -141zM390 724l92 152l56 -32l-105 -141z" />
    <glyph glyph-name="ohungarumlaut" unicode="&#x151;" horiz-adv-x="542" 
d="M271 -12q-45 0 -85.5 17t-71.5 49.5t-49.5 80t-18.5 107.5q0 61 18.5 108.5t49.5 80.5t71.5 50t85.5 17t85.5 -17t71.5 -50t49.5 -80.5t18.5 -108.5q0 -60 -18.5 -107.5t-49.5 -80t-71.5 -49.5t-85.5 -17zM271 56q31 0 57 13.5t44.5 38t28.5 58.5t10 76t-10 76.5
t-28.5 59.5t-44.5 38.5t-57 13.5t-57 -13.5t-44.5 -38.5t-28.5 -59.5t-10 -76.5t10 -76t28.5 -58.5t44.5 -38t57 -13.5zM220 568l-45 21l86 172l59 -28zM371 568l-46 21l87 172l58 -28z" />
    <glyph glyph-name="OE" unicode="&#x152;" horiz-adv-x="847" 
d="M369 0q-75 0 -133.5 22.5t-99.5 65t-62.5 104t-21.5 139.5q0 157 84 241t237 84h415v-70h-278v-206h232v-71h-232v-238h288v-71h-429zM379 68h48v520h-48q-119 0 -180 -66t-61 -191q0 -126 61 -194.5t180 -68.5z" />
    <glyph glyph-name="oe" unicode="&#x153;" horiz-adv-x="839" 
d="M264 -12q-44 0 -83.5 17t-69.5 49.5t-47.5 80t-17.5 107.5q0 61 18 108.5t48 80.5t70 50t84 17q56 0 103 -31t73 -91q28 57 72.5 89.5t98.5 32.5q45 0 80 -16t59 -46t36.5 -72.5t12.5 -94.5q0 -28 -3 -46h-319q1 -38 13.5 -69t33 -53t48 -34t58.5 -12q35 0 64 11.5
t56 28.5l30 -57q-32 -20 -71 -35t-89 -15q-57 0 -104 32t-75 89q-57 -121 -179 -121zM266 56q30 0 55 13.5t43 38t28 58.5t10 76t-10 76.5t-28 59.5t-43 38.5t-55 13.5t-55 -13.5t-43 -38.5t-28 -59.5t-10 -76.5t10 -76t28 -58.5t43 -38t55 -13.5zM479 278h250q0 75 -31 115
t-87 40q-51 0 -88 -41.5t-44 -113.5z" />
    <glyph glyph-name="Racute" unicode="&#x154;" horiz-adv-x="569" 
d="M90 0v656h205q50 0 92.5 -9.5t73 -31.5t47.5 -57t17 -86q0 -77 -40 -123t-108 -63l167 -286h-94l-158 277h-119v-277h-83zM173 345h110q77 0 118 31.5t41 95.5q0 65 -41 91t-118 26h-110v-244zM271 697l-37 42l142 128l47 -55z" />
    <glyph glyph-name="racute" unicode="&#x155;" horiz-adv-x="347" 
d="M82 0v486h68l7 -88h3q25 46 60.5 73t77.5 27q29 0 52 -10l-16 -72q-12 4 -22 6t-25 2q-31 0 -64.5 -25t-58.5 -87v-312h-82zM203 573l-42 41l141 167l58 -55z" />
    <glyph glyph-name="uni0156" unicode="&#x156;" horiz-adv-x="569" 
d="M90 0v656h205q50 0 92.5 -9.5t73 -31.5t47.5 -57t17 -86q0 -77 -40 -123t-108 -63l167 -286h-94l-158 277h-119v-277h-83zM173 345h110q77 0 118 31.5t41 95.5q0 65 -41 91t-118 26h-110v-244zM216 -226l-8 40q63 5 86 16.5t23 31.5t-18 29.5t-53 12.5l18 38
q65 -8 91 -25.5t26 -51.5q0 -44 -42.5 -65.5t-122.5 -25.5z" />
    <glyph glyph-name="uni0157" unicode="&#x157;" horiz-adv-x="347" 
d="M82 0v486h68l7 -88h3q25 46 60.5 73t77.5 27q29 0 52 -10l-16 -72q-12 4 -22 6t-25 2q-31 0 -64.5 -25t-58.5 -87v-312h-82zM34 -226l-8 40q63 5 86 16.5t23 31.5t-18 29.5t-53 12.5l18 38q65 -8 91 -25.5t26 -51.5q0 -44 -42.5 -65.5t-122.5 -25.5z" />
    <glyph glyph-name="Rcaron" unicode="&#x158;" horiz-adv-x="569" 
d="M90 0v656h205q50 0 92.5 -9.5t73 -31.5t47.5 -57t17 -86q0 -77 -40 -123t-108 -63l167 -286h-94l-158 277h-119v-277h-83zM173 345h110q77 0 118 31.5t41 95.5q0 65 -41 91t-118 26h-110v-244zM245 706l-105 113l36 26l110 -92h4l110 92l36 -26l-105 -113h-86z" />
    <glyph glyph-name="rcaron" unicode="&#x159;" horiz-adv-x="347" 
d="M82 0v486h68l7 -88h3q25 46 60.5 73t77.5 27q29 0 52 -10l-16 -72q-12 4 -22 6t-25 2q-31 0 -64.5 -25t-58.5 -87v-312h-82zM176 574l-114 140l35 32l118 -113h4l118 113l35 -32l-114 -140h-82z" />
    <glyph glyph-name="Sacute" unicode="&#x15a;" horiz-adv-x="534" 
d="M272 -12q-69 0 -128 26t-102 71l50 58q35 -37 82.5 -59.5t98.5 -22.5q65 0 101 29.5t36 77.5q0 25 -8.5 42.5t-23 30t-34.5 22.5t-43 21l-94 41q-23 10 -47 24t-43 34t-31 47.5t-12 63.5q0 37 15.5 69t43 55.5t65 36.5t82.5 13q59 0 109 -22.5t85 -58.5l-45 -54
q-30 29 -66.5 45.5t-82.5 16.5q-55 0 -88.5 -25.5t-33.5 -70.5q0 -24 9.5 -40.5t25.5 -29t35 -22t39 -17.5l93 -40q28 -12 53 -27.5t43 -36t28.5 -48t10.5 -63.5q0 -39 -15.5 -73t-44.5 -59.5t-70 -40t-93 -14.5zM262 697l-37 42l142 128l47 -55z" />
    <glyph glyph-name="sacute" unicode="&#x15b;" horiz-adv-x="419" 
d="M209 -12q-52 0 -99 19t-82 48l41 55q32 -26 65.5 -42t77.5 -16q48 0 72 22t24 54q0 19 -10 33t-25.5 24.5t-35.5 18.5l-40 16q-26 9 -52 20.5t-46.5 28t-33.5 38.5t-13 53q0 29 11.5 54.5t33 44t52.5 29t70 10.5q46 0 84.5 -16t66.5 -39l-39 -52q-25 19 -52 31t-59 12
q-46 0 -67.5 -21t-21.5 -49q0 -17 9 -29.5t24 -22t34.5 -17t40.5 -15.5q26 -10 52.5 -21t47.5 -27.5t34.5 -40.5t13.5 -58q0 -30 -11.5 -56t-34 -46t-56 -31.5t-76.5 -11.5zM205 573l-42 41l141 167l58 -55z" />
    <glyph glyph-name="Scircumflex" unicode="&#x15c;" horiz-adv-x="534" 
d="M272 -12q-69 0 -128 26t-102 71l50 58q35 -37 82.5 -59.5t98.5 -22.5q65 0 101 29.5t36 77.5q0 25 -8.5 42.5t-23 30t-34.5 22.5t-43 21l-94 41q-23 10 -47 24t-43 34t-31 47.5t-12 63.5q0 37 15.5 69t43 55.5t65 36.5t82.5 13q59 0 109 -22.5t85 -58.5l-45 -54
q-30 29 -66.5 45.5t-82.5 16.5q-55 0 -88.5 -25.5t-33.5 -70.5q0 -24 9.5 -40.5t25.5 -29t35 -22t39 -17.5l93 -40q28 -12 53 -27.5t43 -36t28.5 -48t10.5 -63.5q0 -39 -15.5 -73t-44.5 -59.5t-70 -40t-93 -14.5zM131 725l105 113h86l105 -113l-36 -26l-110 93h-4l-110 -93z
" />
    <glyph glyph-name="scircumflex" unicode="&#x15d;" horiz-adv-x="419" 
d="M209 -12q-52 0 -99 19t-82 48l41 55q32 -26 65.5 -42t77.5 -16q48 0 72 22t24 54q0 19 -10 33t-25.5 24.5t-35.5 18.5l-40 16q-26 9 -52 20.5t-46.5 28t-33.5 38.5t-13 53q0 29 11.5 54.5t33 44t52.5 29t70 10.5q46 0 84.5 -16t66.5 -39l-39 -52q-25 19 -52 31t-59 12
q-46 0 -67.5 -21t-21.5 -49q0 -17 9 -29.5t24 -22t34.5 -17t40.5 -15.5q26 -10 52.5 -21t47.5 -27.5t34.5 -40.5t13.5 -58q0 -30 -11.5 -56t-34 -46t-56 -31.5t-76.5 -11.5zM64 600l114 140h82l114 -140l-35 -32l-118 113h-4l-118 -113z" />
    <glyph glyph-name="uni015E" unicode="&#x15e;" horiz-adv-x="534" 
d="M272 -12q-69 0 -128 26t-102 71l50 58q35 -37 82.5 -59.5t98.5 -22.5q65 0 101 29.5t36 77.5q0 25 -8.5 42.5t-23 30t-34.5 22.5t-43 21l-94 41q-23 10 -47 24t-43 34t-31 47.5t-12 63.5q0 37 15.5 69t43 55.5t65 36.5t82.5 13q59 0 109 -22.5t85 -58.5l-45 -54
q-30 29 -66.5 45.5t-82.5 16.5q-55 0 -88.5 -25.5t-33.5 -70.5q0 -24 9.5 -40.5t25.5 -29t35 -22t39 -17.5l93 -40q28 -12 53 -27.5t43 -36t28.5 -48t10.5 -63.5q0 -39 -15.5 -73t-44.5 -59.5t-70 -40t-93 -14.5zM186 -226l-8 40q63 5 86 16.5t23 33.5q0 20 -17 31t-60 17
l44 91h53l-29 -67q35 -8 54 -24t19 -47q0 -44 -42.5 -65.5t-122.5 -25.5z" />
    <glyph glyph-name="uni015F" unicode="&#x15f;" horiz-adv-x="419" 
d="M209 -12q-52 0 -99 19t-82 48l41 55q32 -26 65.5 -42t77.5 -16q48 0 72 22t24 54q0 19 -10 33t-25.5 24.5t-35.5 18.5l-40 16q-26 9 -52 20.5t-46.5 28t-33.5 38.5t-13 53q0 29 11.5 54.5t33 44t52.5 29t70 10.5q46 0 84.5 -16t66.5 -39l-39 -52q-25 19 -52 31t-59 12
q-46 0 -67.5 -21t-21.5 -49q0 -17 9 -29.5t24 -22t34.5 -17t40.5 -15.5q26 -10 52.5 -21t47.5 -27.5t34.5 -40.5t13.5 -58q0 -30 -11.5 -56t-34 -46t-56 -31.5t-76.5 -11.5zM135 -226l-8 40q63 5 86 16.5t23 33.5q0 20 -17 31t-60 17l44 91h53l-29 -67q35 -8 54 -24t19 -47
q0 -44 -42.5 -65.5t-122.5 -25.5z" />
    <glyph glyph-name="Scaron" unicode="&#x160;" horiz-adv-x="534" 
d="M272 -12q-69 0 -128 26t-102 71l50 58q35 -37 82.5 -59.5t98.5 -22.5q65 0 101 29.5t36 77.5q0 25 -8.5 42.5t-23 30t-34.5 22.5t-43 21l-94 41q-23 10 -47 24t-43 34t-31 47.5t-12 63.5q0 37 15.5 69t43 55.5t65 36.5t82.5 13q59 0 109 -22.5t85 -58.5l-45 -54
q-30 29 -66.5 45.5t-82.5 16.5q-55 0 -88.5 -25.5t-33.5 -70.5q0 -24 9.5 -40.5t25.5 -29t35 -22t39 -17.5l93 -40q28 -12 53 -27.5t43 -36t28.5 -48t10.5 -63.5q0 -39 -15.5 -73t-44.5 -59.5t-70 -40t-93 -14.5zM236 706l-105 113l36 26l110 -92h4l110 92l36 -26l-105 -113
h-86z" />
    <glyph glyph-name="scaron" unicode="&#x161;" horiz-adv-x="419" 
d="M209 -12q-52 0 -99 19t-82 48l41 55q32 -26 65.5 -42t77.5 -16q48 0 72 22t24 54q0 19 -10 33t-25.5 24.5t-35.5 18.5l-40 16q-26 9 -52 20.5t-46.5 28t-33.5 38.5t-13 53q0 29 11.5 54.5t33 44t52.5 29t70 10.5q46 0 84.5 -16t66.5 -39l-39 -52q-25 19 -52 31t-59 12
q-46 0 -67.5 -21t-21.5 -49q0 -17 9 -29.5t24 -22t34.5 -17t40.5 -15.5q26 -10 52.5 -21t47.5 -27.5t34.5 -40.5t13.5 -58q0 -30 -11.5 -56t-34 -46t-56 -31.5t-76.5 -11.5zM178 574l-114 140l35 32l118 -113h4l118 113l35 -32l-114 -140h-82z" />
    <glyph glyph-name="uni0162" unicode="&#x162;" horiz-adv-x="536" 
d="M226 0v586h-198v70h480v-70h-198v-586h-84zM177 -226l-8 40q63 5 86 16.5t23 33.5q0 20 -17 31t-60 17l44 91h53l-29 -67q35 -8 54 -24t19 -47q0 -44 -42.5 -65.5t-122.5 -25.5z" />
    <glyph glyph-name="uni0163" unicode="&#x163;" horiz-adv-x="338" 
d="M235 -12q-39 0 -65.5 12t-43 33t-23.5 51t-7 66v269h-72v62l76 5l10 136h69v-136h131v-67h-131v-270q0 -45 16.5 -69.5t58.5 -24.5q13 0 28 4t27 9l16 -62q-20 -7 -43.5 -12.5t-46.5 -5.5zM129 -226l-8 40q63 5 86 16.5t23 33.5q0 20 -17 31t-60 17l44 91h53l-29 -67
q35 -8 54 -24t19 -47q0 -44 -42.5 -65.5t-122.5 -25.5z" />
    <glyph glyph-name="Tcaron" unicode="&#x164;" horiz-adv-x="536" 
d="M226 0v586h-198v70h480v-70h-198v-586h-84zM224 706l-105 113l36 26l110 -92h4l110 92l36 -26l-105 -113h-86z" />
    <glyph glyph-name="tcaron" unicode="&#x165;" horiz-adv-x="338" 
d="M235 -12q-39 0 -65.5 12t-43 33t-23.5 51t-7 66v269h-72v62l76 5l10 136h69v-136h131v-67h-131v-270q0 -45 16.5 -69.5t58.5 -24.5q13 0 28 4t27 9l16 -62q-20 -7 -43.5 -12.5t-46.5 -5.5zM257 548l-4 212h59l-1 -57l-14 -155h-40z" />
    <glyph glyph-name="uni0166" unicode="&#x166;" horiz-adv-x="536" 
d="M226 0v313h-123v44l88 3h35v226h-198v70h480v-70h-198v-226h123v-47h-123v-313h-84z" />
    <glyph glyph-name="uni0167" unicode="&#x167;" horiz-adv-x="338" 
d="M24 231v43l72 5v140h-72v62l76 5l10 136h69v-136h131v-67h-131v-140h131v-48h-131v-82q0 -45 16.5 -69.5t58.5 -24.5q13 0 28 4t27 9l16 -62q-20 -7 -43.5 -12.5t-46.5 -5.5q-39 0 -65.5 12t-43 33t-23.5 51t-7 66v81h-72z" />
    <glyph glyph-name="Utilde" unicode="&#x168;" horiz-adv-x="645" 
d="M323 -12q-50 0 -93.5 14.5t-75 48t-49.5 87.5t-18 133v385h83v-387q0 -59 12 -99t32.5 -64t48.5 -34.5t60 -10.5q33 0 61 10.5t49 34.5t33 64t12 99v387h80v-385q0 -79 -18 -133t-49.5 -87.5t-74.5 -48t-93 -14.5zM397 709q-28 0 -48 11t-36.5 24.5t-31 24.5t-32.5 11
q-19 0 -32 -17t-16 -49l-56 4q3 57 30 90t72 33q28 0 48 -11t36.5 -24.5t31 -24.5t32.5 -11q40 0 48 66l56 -4q-3 -58 -30 -90.5t-72 -32.5z" />
    <glyph glyph-name="utilde" unicode="&#x169;" horiz-adv-x="544" 
d="M224 -12q-78 0 -113.5 48t-35.5 142v308h83v-297q0 -69 21.5 -99.5t69.5 -30.5q38 0 67 19.5t64 62.5v345h82v-486h-68l-7 76h-3q-34 -40 -71.5 -64t-88.5 -24zM344 577q-27 0 -46 13t-35 29t-30.5 29t-31.5 13q-23 0 -34 -22t-13 -57l-55 3q1 29 7.5 54t18.5 43
t30.5 28.5t44.5 10.5q27 0 46 -13t35 -29t30.5 -29t32.5 -13q22 0 33 22t13 57l55 -4q-1 -29 -7.5 -53.5t-18.5 -42.5t-30.5 -28.5t-44.5 -10.5z" />
    <glyph glyph-name="Umacron" unicode="&#x16a;" horiz-adv-x="645" 
d="M323 -12q-50 0 -93.5 14.5t-75 48t-49.5 87.5t-18 133v385h83v-387q0 -59 12 -99t32.5 -64t48.5 -34.5t60 -10.5q33 0 61 10.5t49 34.5t33 64t12 99v387h80v-385q0 -79 -18 -133t-49.5 -87.5t-74.5 -48t-93 -14.5zM188 735v57h268v-57h-268z" />
    <glyph glyph-name="umacron" unicode="&#x16b;" horiz-adv-x="544" 
d="M224 -12q-78 0 -113.5 48t-35.5 142v308h83v-297q0 -69 21.5 -99.5t69.5 -30.5q38 0 67 19.5t64 62.5v345h82v-486h-68l-7 76h-3q-34 -40 -71.5 -64t-88.5 -24zM136 601v57h266v-57h-266z" />
    <glyph glyph-name="Ubreve" unicode="&#x16c;" horiz-adv-x="645" 
d="M323 -12q-50 0 -93.5 14.5t-75 48t-49.5 87.5t-18 133v385h83v-387q0 -59 12 -99t32.5 -64t48.5 -34.5t60 -10.5q33 0 61 10.5t49 34.5t33 64t12 99v387h80v-385q0 -79 -18 -133t-49.5 -87.5t-74.5 -48t-93 -14.5zM322 705q-35 0 -61 10.5t-44 28t-28 41t-13 49.5l50 8
q6 -35 29.5 -59.5t66.5 -24.5t66.5 24.5t29.5 59.5l50 -8q-3 -26 -13 -49.5t-28 -41t-44 -28t-61 -10.5z" />
    <glyph glyph-name="ubreve" unicode="&#x16d;" horiz-adv-x="544" 
d="M224 -12q-78 0 -113.5 48t-35.5 142v308h83v-297q0 -69 21.5 -99.5t69.5 -30.5q38 0 67 19.5t64 62.5v345h82v-486h-68l-7 76h-3q-34 -40 -71.5 -64t-88.5 -24zM272 571q-40 0 -69 13t-47.5 34.5t-28 48.5t-11.5 55l51 8q3 -19 10.5 -37.5t20.5 -33.5t31.5 -24t42.5 -9
t42.5 9t31.5 24t20.5 33.5t10.5 37.5l51 -8q-2 -28 -11.5 -55t-28.5 -48.5t-47.5 -34.5t-68.5 -13z" />
    <glyph glyph-name="Uring" unicode="&#x16e;" horiz-adv-x="645" 
d="M323 -12q-50 0 -93.5 14.5t-75 48t-49.5 87.5t-18 133v385h83v-387q0 -59 12 -99t32.5 -64t48.5 -34.5t60 -10.5q33 0 61 10.5t49 34.5t33 64t12 99v387h80v-385q0 -79 -18 -133t-49.5 -87.5t-74.5 -48t-93 -14.5zM322 699q-42 0 -69.5 24.5t-27.5 65.5q0 42 27.5 66.5
t69.5 24.5t69.5 -24.5t27.5 -66.5q0 -41 -27.5 -65.5t-69.5 -24.5zM322 735q20 0 35.5 14t15.5 40t-15.5 40t-35.5 14q-22 0 -37 -14t-15 -40t15 -40t37 -14z" />
    <glyph glyph-name="uring" unicode="&#x16f;" horiz-adv-x="544" 
d="M224 -12q-78 0 -113.5 48t-35.5 142v308h83v-297q0 -69 21.5 -99.5t69.5 -30.5q38 0 67 19.5t64 62.5v345h82v-486h-68l-7 76h-3q-34 -40 -71.5 -64t-88.5 -24zM272 554q-51 0 -80.5 28t-29.5 71q0 42 29.5 70t80.5 28t80.5 -28t29.5 -70q0 -43 -29.5 -71t-80.5 -28z
M272 591q24 0 40.5 16.5t16.5 45.5q0 28 -16.5 44.5t-40.5 16.5t-40.5 -16.5t-16.5 -44.5q0 -29 16.5 -45.5t40.5 -16.5z" />
    <glyph glyph-name="Uhungarumlaut" unicode="&#x170;" horiz-adv-x="645" 
d="M323 -12q-50 0 -93.5 14.5t-75 48t-49.5 87.5t-18 133v385h83v-387q0 -59 12 -99t32.5 -64t48.5 -34.5t60 -10.5q33 0 61 10.5t49 34.5t33 64t12 99v387h80v-385q0 -79 -18 -133t-49.5 -87.5t-74.5 -48t-93 -14.5zM220 724l92 152l56 -32l-105 -141zM380 724l92 152
l56 -32l-105 -141z" />
    <glyph glyph-name="uhungarumlaut" unicode="&#x171;" horiz-adv-x="544" 
d="M224 -12q-78 0 -113.5 48t-35.5 142v308h83v-297q0 -69 21.5 -99.5t69.5 -30.5q38 0 67 19.5t64 62.5v345h82v-486h-68l-7 76h-3q-34 -40 -71.5 -64t-88.5 -24zM221 568l-45 21l86 172l59 -28zM372 568l-46 21l87 172l58 -28z" />
    <glyph glyph-name="Uogonek" unicode="&#x172;" horiz-adv-x="645" 
d="M350 -212q-40 0 -68 22t-28 65q0 21 6.5 37.5t16 30.5t21 25.5l20.5 20.5q-51 1 -93.5 17t-73 49.5t-47.5 86.5t-17 129v385h83v-387q0 -59 12 -99t32.5 -64t48.5 -34.5t60 -10.5q33 0 61 10.5t49 34.5t33 64t12 99v387h80v-385q0 -66 -11.5 -111.5t-32.5 -77t-50.5 -52
t-65.5 -37.5q-39 -19 -59 -47t-20 -53q0 -23 15 -34.5t33 -11.5q21 0 40 14l23 -45q-14 -11 -37 -19.5t-43 -8.5z" />
    <glyph glyph-name="uogonek" unicode="&#x173;" horiz-adv-x="544" 
d="M405 -206q-38 0 -64.5 21.5t-26.5 63.5q0 41 24.5 71.5t56.5 53.5l-8 72h-3q-34 -40 -71.5 -64t-88.5 -24q-78 0 -113.5 48t-35.5 142v308h83v-297q0 -69 21 -99.5t70 -30.5q38 0 67 19.5t64 62.5v345h82v-486q-45 -22 -66 -49t-21 -56q0 -23 14.5 -34.5t31.5 -11.5
q12 0 22 3.5t19 9.5l21 -41q-14 -11 -36.5 -19t-41.5 -8z" />
    <glyph glyph-name="Wcircumflex" unicode="&#x174;" horiz-adv-x="786" 
d="M162 0l-139 656h86l69 -357q9 -54 19 -106t19 -106h4q11 54 23 106.5t23 105.5l91 357h76l91 -357q12 -52 24 -105t24 -107h4q9 54 18 106.5t19 105.5l69 357h80l-136 -656h-100l-99 395q-9 38 -16.5 74.5t-15.5 74.5h-4q-8 -38 -16.5 -74.5t-16.5 -74.5l-97 -395h-99z
M245 725l105 113h86l105 -113l-36 -26l-110 93h-4l-110 -93z" />
    <glyph glyph-name="wcircumflex" unicode="&#x175;" horiz-adv-x="718" 
d="M159 0l-135 486h84l72 -281q8 -35 15 -68t14 -67h4q8 34 16 67.5t17 67.5l75 281h80l76 -281q9 -35 17.5 -68t16.5 -67h4q8 34 15 67t15 68l71 281h78l-130 -486h-100l-70 261q-9 35 -16.5 69t-16.5 71h-4q-8 -37 -16 -71.5t-18 -69.5l-68 -260h-96zM205 600l114 140h82
l114 -140l-35 -32l-118 113h-4l-118 -113z" />
    <glyph glyph-name="Ycircumflex" unicode="&#x176;" horiz-adv-x="476" 
d="M196 0v254l-197 402h89l85 -185q16 -36 31 -71t32 -72h4q17 37 34 72t32 71l84 185h87l-197 -402v-254h-84zM90 725l105 113h86l105 -113l-36 -26l-110 93h-4l-110 -93z" />
    <glyph glyph-name="ycircumflex" unicode="&#x177;" horiz-adv-x="467" 
d="M90 -209q-17 0 -31 2.5t-26 7.5l16 65l18 -4.5t19 -2.5q42 0 68.5 29.5t41.5 74.5l11 36l-195 487h85l99 -269q11 -32 23.5 -67.5t23.5 -69.5h4q11 33 21 69t20 68l87 269h80l-183 -526q-13 -36 -29 -67t-38 -53.5t-50 -35.5t-65 -13zM87 600l114 140h82l114 -140
l-35 -32l-118 113h-4l-118 -113z" />
    <glyph glyph-name="Ydieresis" unicode="&#x178;" horiz-adv-x="476" 
d="M196 0v254l-197 402h89l85 -185q16 -36 31 -71t32 -72h4q17 37 34 72t32 71l84 185h87l-197 -402v-254h-84zM135 715q-21 0 -35 14t-14 35q0 22 14 35.5t35 13.5q22 0 35.5 -13.5t13.5 -35.5q0 -21 -13.5 -35t-35.5 -14zM341 715q-22 0 -35.5 14t-13.5 35q0 22 13.5 35.5
t35.5 13.5q21 0 35 -13.5t14 -35.5q0 -21 -14 -35t-35 -14z" />
    <glyph glyph-name="Zacute" unicode="&#x179;" horiz-adv-x="539" 
d="M45 0v50l345 536h-314v70h418v-49l-346 -536h349v-71h-452zM263 697l-37 42l142 128l47 -55z" />
    <glyph glyph-name="zacute" unicode="&#x17a;" horiz-adv-x="425" 
d="M31 0v44l256 375h-228v67h332v-44l-256 -375h264v-67h-368zM214 573l-42 41l141 167l58 -55z" />
    <glyph glyph-name="Zdotaccent" unicode="&#x17b;" horiz-adv-x="539" 
d="M45 0v50l345 536h-314v70h418v-49l-346 -536h349v-71h-452zM280 714q-24 0 -40.5 15t-16.5 39q0 23 16.5 38t40.5 15t40.5 -15t16.5 -38q0 -24 -16.5 -39t-40.5 -15z" />
    <glyph glyph-name="zdotaccent" unicode="&#x17c;" horiz-adv-x="425" 
d="M31 0v44l256 375h-228v67h332v-44l-256 -375h264v-67h-368zM228 586q-23 0 -38.5 15t-15.5 39q0 23 15.5 38.5t38.5 15.5t38.5 -15.5t15.5 -38.5q0 -24 -15.5 -39t-38.5 -15z" />
    <glyph glyph-name="Zcaron" unicode="&#x17d;" horiz-adv-x="539" 
d="M45 0v50l345 536h-314v70h418v-49l-346 -536h349v-71h-452zM237 706l-105 113l36 26l110 -92h4l110 92l36 -26l-105 -113h-86z" />
    <glyph glyph-name="zcaron" unicode="&#x17e;" horiz-adv-x="425" 
d="M31 0v44l256 375h-228v67h332v-44l-256 -375h264v-67h-368zM187 574l-114 140l35 32l118 -113h4l118 113l35 -32l-114 -140h-82z" />
    <glyph glyph-name="uni0180" unicode="&#x180;" horiz-adv-x="544" 
d="M297 -12q-34 0 -70.5 16.5t-68.5 45.5h-3l-7 -50h-66v571h-74v43l74 5v93h82v-93h182v-48h-182v-93l-2 -87q33 29 72 48.5t80 19.5q47 0 83 -16.5t60.5 -46t37 -71.5t12.5 -93q0 -57 -17 -102.5t-46 -77t-67 -48t-80 -16.5zM283 57q30 0 55.5 12.5t44 35t29 55t10.5 71.5
q0 34 -7 63.5t-22.5 50.5t-40 33t-58.5 12q-60 0 -130 -67v-215q32 -28 63.5 -39.5t55.5 -11.5z" />
    <glyph glyph-name="uni018F" unicode="&#x18f;" horiz-adv-x="658" 
d="M327 -12q-63 0 -113 23.5t-84.5 67.5t-53 106.5t-18.5 139.5q0 5 0.5 11.5t1.5 13.5h464q-5 121 -55 185t-144 64q-50 0 -90.5 -18t-69.5 -47l-41 57q35 34 87.5 55.5t119.5 21.5q129 0 202 -86.5t73 -251.5q0 -82 -19.5 -145.5t-56 -107t-88 -66.5t-115.5 -23zM327 57
q84 0 135.5 58.5t59.5 170.5h-379q5 -109 54.5 -169t129.5 -60z" />
    <glyph glyph-name="uni0192" unicode="&#x192;" horiz-adv-x="497" 
d="M91 -97q-23 0 -42 4t-31 11l15 62q23 -10 50 -10q47 0 67.5 39.5t28.5 116.5l24 219h-87v59l69 4h25l6 56q11 100 49.5 152t118.5 52q22 0 43 -5.5t35 -12.5l-18 -63q-11 5 -24 9.5t-32 4.5q-23 0 -39 -11t-26.5 -29t-17 -41.5t-9.5 -48.5l-7 -63h126v-63h-133l-26 -237
q-5 -46 -16 -83.5t-30 -64.5t-48 -42t-71 -15z" />
    <glyph glyph-name="uni0193" unicode="&#x193;" horiz-adv-x="617" 
d="M348 -12q-65 0 -119.5 23t-93.5 66.5t-61 107t-22 143.5q0 79 22.5 142t62.5 107t95.5 67.5t120.5 23.5q26 0 48.5 -3.5t42.5 -9.5q-6 19 -6 40q0 48 31 78.5t82 30.5q20 0 35 -4t27 -9l-16 -63q-8 3 -15.5 6t-18.5 3q-26 0 -39.5 -15.5t-13.5 -38.5t7.5 -39.5
t24.5 -39.5l-46 -55q-25 19 -58 32.5t-83 13.5t-90 -18.5t-68 -53t-43.5 -83.5t-15.5 -110q0 -62 14.5 -111.5t42 -84.5t68 -54t93.5 -19q35 0 66.5 10.5t51.5 28.5v171h-139v69h215v-276q-32 -33 -84 -54.5t-118 -21.5z" />
    <glyph glyph-name="Ohorn" unicode="&#x1a0;" horiz-adv-x="664" 
d="M335 -12q-62 0 -113.5 24t-88.5 68.5t-57.5 108t-20.5 142.5t20.5 141.5t57.5 106t88.5 66.5t113.5 23q71 0 130 -31q42 8 61.5 27.5t19.5 54.5q0 15 -4 30.5t-10 27.5l65 28q10 -17 16.5 -37t6.5 -43q0 -51 -28.5 -80t-78.5 -42q48 -44 75.5 -112.5t27.5 -159.5
q0 -79 -20.5 -142.5t-58 -108t-89 -68.5t-113.5 -24zM335 61q44 0 79.5 19t61 54.5t39.5 85t14 111.5q0 61 -14 110t-39.5 83t-61 52.5t-79.5 18.5t-79.5 -18.5t-61 -52.5t-39.5 -83t-14 -110q0 -62 14 -111.5t39.5 -85t61 -54.5t79.5 -19z" />
    <glyph glyph-name="ohorn" unicode="&#x1a1;" horiz-adv-x="542" 
d="M271 -12q-45 0 -85.5 17t-71.5 49.5t-49.5 80t-18.5 107.5q0 61 18.5 108.5t49.5 80.5t71.5 50t85.5 17q50 0 95 -21q42 8 64 30.5t22 64.5q0 14 -4 28.5t-11 26.5l64 30q10 -17 16.5 -37t6.5 -42q0 -30 -9.5 -52t-25 -38.5t-35 -27t-40.5 -16.5q38 -32 60 -83t22 -119
q0 -60 -18.5 -107.5t-49.5 -80t-71.5 -49.5t-85.5 -17zM271 56q31 0 57 13.5t44.5 38t28.5 58.5t10 76t-10 76.5t-28.5 59.5t-44.5 38.5t-57 13.5t-57 -13.5t-44.5 -38.5t-28.5 -59.5t-10 -76.5t10 -76t28.5 -58.5t44.5 -38t57 -13.5z" />
    <glyph glyph-name="Uhorn" unicode="&#x1af;" horiz-adv-x="659" 
d="M323 -12q-50 0 -93.5 14.5t-75 48t-49.5 87.5t-18 133v385h83v-387q0 -59 12 -99t32.5 -64t48.5 -34.5t60 -10.5q33 0 61 10.5t49 34.5t33 64t12 99v387h33q42 5 66 23t24 60q0 15 -4 30.5t-11 27.5l65 28q11 -17 17 -37t6 -43q0 -29 -9 -50t-24.5 -36t-37 -24t-45.5 -15
v-349q0 -79 -18 -133t-49.5 -87.5t-74.5 -48t-93 -14.5z" />
    <glyph glyph-name="uhorn" unicode="&#x1b0;" horiz-adv-x="544" 
d="M224 -12q-78 0 -113.5 48t-35.5 142v308h83v-297q0 -69 21.5 -99.5t69.5 -30.5q38 0 67 19.5t64 62.5v345h21q18 3 33 9t26.5 17t18 28t6.5 42q0 14 -4 28.5t-10 26.5l64 30q10 -17 16.5 -37t6.5 -42q0 -30 -8.5 -52.5t-22 -38.5t-31 -26t-34.5 -16v-455h-68l-7 76h-3
q-34 -40 -71.5 -64t-88.5 -24z" />
    <glyph glyph-name="uni01C2" unicode="&#x1c2;" horiz-adv-x="288" 
d="M6 331v43l77 4h37v372h58v-372h103v-47h-103v-123h103v-47h-103v-411h-58v411h-114v42l77 5h37v123h-114z" />
    <glyph glyph-name="uni01CD" unicode="&#x1cd;" horiz-adv-x="544" 
d="M203 367l-31 -100h197l-31 100q-18 55 -34 109.5t-32 111.5h-4q-15 -57 -31 -111.5t-34 -109.5zM3 0l222 656h94l222 -656h-89l-62 200h-239l-63 -200h-85zM228 706l-105 113l36 26l110 -92h4l110 92l36 -26l-105 -113h-86z" />
    <glyph glyph-name="uni01CE" unicode="&#x1ce;" horiz-adv-x="504" 
d="M194 -12q-61 0 -101.5 36t-40.5 102q0 80 71 122.5t227 59.5q0 23 -4.5 45t-15.5 39t-30.5 27.5t-49.5 10.5q-42 0 -79 -16t-66 -36l-32 57q34 22 83 42.5t108 20.5q89 0 129 -54.5t40 -145.5v-298h-68l-7 58h-3q-35 -29 -75 -49.5t-86 -20.5zM218 54q35 0 66 16.5
t66 48.5v135q-61 -8 -102.5 -19t-67 -26t-37 -34.5t-11.5 -42.5q0 -42 25 -60t61 -18zM221 574l-114 140l35 32l118 -113h4l118 113l35 -32l-114 -140h-82z" />
    <glyph glyph-name="uni01CF" unicode="&#x1cf;" horiz-adv-x="263" 
d="M90 0v656h83v-656h-83zM88 706l-105 113l36 26l110 -92h4l110 92l36 -26l-105 -113h-86z" />
    <glyph glyph-name="uni01D0" unicode="&#x1d0;" horiz-adv-x="246" 
d="M82 0v486h82v-486h-82zM82 574l-114 140l35 32l118 -113h4l118 113l35 -32l-114 -140h-82z" />
    <glyph glyph-name="uni01D1" unicode="&#x1d1;" horiz-adv-x="664" 
d="M332 -12q-62 0 -113.5 24t-88.5 68.5t-57.5 108t-20.5 142.5t20.5 141.5t57.5 106t88.5 66.5t113.5 23t113.5 -23.5t89 -67t58 -106t20.5 -140.5q0 -79 -20.5 -142.5t-58 -108t-89 -68.5t-113.5 -24zM332 61q44 0 79.5 19t61 54.5t39.5 85t14 111.5q0 61 -14 110
t-39.5 83t-61 52.5t-79.5 18.5t-79.5 -18.5t-61 -52.5t-39.5 -83t-14 -110q0 -62 14 -111.5t39.5 -85t61 -54.5t79.5 -19zM289 706l-105 113l36 26l110 -92h4l110 92l36 -26l-105 -113h-86z" />
    <glyph glyph-name="uni01D2" unicode="&#x1d2;" horiz-adv-x="542" 
d="M271 -12q-45 0 -85.5 17t-71.5 49.5t-49.5 80t-18.5 107.5q0 61 18.5 108.5t49.5 80.5t71.5 50t85.5 17t85.5 -17t71.5 -50t49.5 -80.5t18.5 -108.5q0 -60 -18.5 -107.5t-49.5 -80t-71.5 -49.5t-85.5 -17zM271 56q31 0 57 13.5t44.5 38t28.5 58.5t10 76t-10 76.5
t-28.5 59.5t-44.5 38.5t-57 13.5t-57 -13.5t-44.5 -38.5t-28.5 -59.5t-10 -76.5t10 -76t28.5 -58.5t44.5 -38t57 -13.5zM230 574l-114 140l35 32l118 -113h4l118 113l35 -32l-114 -140h-82z" />
    <glyph glyph-name="uni01D3" unicode="&#x1d3;" horiz-adv-x="645" 
d="M323 -12q-50 0 -93.5 14.5t-75 48t-49.5 87.5t-18 133v385h83v-387q0 -59 12 -99t32.5 -64t48.5 -34.5t60 -10.5q33 0 61 10.5t49 34.5t33 64t12 99v387h80v-385q0 -79 -18 -133t-49.5 -87.5t-74.5 -48t-93 -14.5zM279 706l-105 113l36 26l110 -92h4l110 92l36 -26
l-105 -113h-86z" />
    <glyph glyph-name="uni01D4" unicode="&#x1d4;" horiz-adv-x="544" 
d="M224 -12q-78 0 -113.5 48t-35.5 142v308h83v-297q0 -69 21.5 -99.5t69.5 -30.5q38 0 67 19.5t64 62.5v345h82v-486h-68l-7 76h-3q-34 -40 -71.5 -64t-88.5 -24zM231 574l-114 140l35 32l118 -113h4l118 113l35 -32l-114 -140h-82z" />
    <glyph glyph-name="uni01D5" unicode="&#x1d5;" horiz-adv-x="645" 
d="M323 -12q-50 0 -93.5 14.5t-75 48t-49.5 87.5t-18 133v385h83v-387q0 -59 12 -99t32.5 -64t48.5 -34.5t60 -10.5q33 0 61 10.5t49 34.5t33 64t12 99v387h80v-385q0 -79 -18 -133t-49.5 -87.5t-74.5 -48t-93 -14.5zM219 715q-20 0 -32.5 13t-12.5 33t12.5 32.5t32.5 12.5
t33 -12.5t13 -32.5t-13 -33t-33 -13zM188 861v46h268v-46h-268zM425 715q-20 0 -33 13t-13 33t13 32.5t33 12.5t32.5 -12.5t12.5 -32.5t-12.5 -33t-32.5 -13z" />
    <glyph glyph-name="uni01D6" unicode="&#x1d6;" horiz-adv-x="544" 
d="M224 -12q-78 0 -113.5 48t-35.5 142v308h83v-297q0 -69 21.5 -99.5t69.5 -30.5q38 0 67 19.5t64 62.5v345h82v-486h-68l-7 76h-3q-34 -40 -71.5 -64t-88.5 -24zM176 588q-20 0 -33 13t-13 32q0 20 13 33t33 13t32.5 -13t12.5 -33q0 -19 -12.5 -32t-32.5 -13zM138 750v47
h267v-47h-267zM368 588q-20 0 -32.5 13t-12.5 32q0 20 12.5 33t32.5 13t33 -13t13 -33q0 -19 -13 -32t-33 -13z" />
    <glyph glyph-name="uni01D7" unicode="&#x1d7;" horiz-adv-x="645" 
d="M323 -12q-50 0 -93.5 14.5t-75 48t-49.5 87.5t-18 133v385h83v-387q0 -59 12 -99t32.5 -64t48.5 -34.5t60 -10.5q33 0 61 10.5t49 34.5t33 64t12 99v387h80v-385q0 -79 -18 -133t-49.5 -87.5t-74.5 -48t-93 -14.5zM219 715q-20 0 -32.5 13t-12.5 33t12.5 32.5t32.5 12.5
t33 -12.5t13 -32.5t-13 -33t-33 -13zM284 849l95 119l53 -36l-111 -109zM425 715q-20 0 -33 13t-13 33t13 32.5t33 12.5t32.5 -12.5t12.5 -32.5t-12.5 -33t-32.5 -13z" />
    <glyph glyph-name="uni01D8" unicode="&#x1d8;" horiz-adv-x="544" 
d="M224 -12q-78 0 -113.5 48t-35.5 142v308h83v-297q0 -69 21.5 -99.5t69.5 -30.5q38 0 67 19.5t64 62.5v345h82v-486h-68l-7 76h-3q-34 -40 -71.5 -64t-88.5 -24zM265 705l-35 24l82 115l49 -34zM176 588q-20 0 -33 13t-13 32q0 20 13 33t33 13t32.5 -13t12.5 -33
q0 -19 -12.5 -32t-32.5 -13zM368 588q-20 0 -32.5 13t-12.5 32q0 20 12.5 33t32.5 13t33 -13t13 -33q0 -19 -13 -32t-33 -13z" />
    <glyph glyph-name="uni01D9" unicode="&#x1d9;" horiz-adv-x="645" 
d="M323 -12q-50 0 -93.5 14.5t-75 48t-49.5 87.5t-18 133v385h83v-387q0 -59 12 -99t32.5 -64t48.5 -34.5t60 -10.5q33 0 61 10.5t49 34.5t33 64t12 99v387h80v-385q0 -79 -18 -133t-49.5 -87.5t-74.5 -48t-93 -14.5zM286 839l-99 96l33 27l100 -75h4l100 75l33 -27l-99 -96
h-72zM219 715q-20 0 -32.5 13t-12.5 33t12.5 32.5t32.5 12.5t33 -12.5t13 -32.5t-13 -33t-33 -13zM425 715q-20 0 -33 13t-13 33t13 32.5t33 12.5t32.5 -12.5t12.5 -32.5t-12.5 -33t-32.5 -13z" />
    <glyph glyph-name="uni01DA" unicode="&#x1da;" horiz-adv-x="544" 
d="M224 -12q-78 0 -113.5 48t-35.5 142v308h83v-297q0 -69 21.5 -99.5t69.5 -30.5q38 0 67 19.5t64 62.5v345h82v-486h-68l-7 76h-3q-34 -40 -71.5 -64t-88.5 -24zM174 840l96 -73h4l96 73l30 -28l-94 -92h-68l-94 92zM176 588q-20 0 -33 13t-13 32q0 20 13 33t33 13
t32.5 -13t12.5 -33q0 -19 -12.5 -32t-32.5 -13zM368 588q-20 0 -32.5 13t-12.5 32q0 20 12.5 33t32.5 13t33 -13t13 -33q0 -19 -13 -32t-33 -13z" />
    <glyph glyph-name="uni01DB" unicode="&#x1db;" horiz-adv-x="645" 
d="M323 -12q-50 0 -93.5 14.5t-75 48t-49.5 87.5t-18 133v385h83v-387q0 -59 12 -99t32.5 -64t48.5 -34.5t60 -10.5q33 0 61 10.5t49 34.5t33 64t12 99v387h80v-385q0 -79 -18 -133t-49.5 -87.5t-74.5 -48t-93 -14.5zM360 849l-37 -26l-111 109l53 36zM219 715
q-20 0 -32.5 13t-12.5 33t12.5 32.5t32.5 12.5t33 -12.5t13 -32.5t-13 -33t-33 -13zM425 715q-20 0 -33 13t-13 33t13 32.5t33 12.5t32.5 -12.5t12.5 -32.5t-12.5 -33t-32.5 -13z" />
    <glyph glyph-name="uni01DC" unicode="&#x1dc;" horiz-adv-x="544" 
d="M224 -12q-78 0 -113.5 48t-35.5 142v308h83v-297q0 -69 21.5 -99.5t69.5 -30.5q38 0 67 19.5t64 62.5v345h82v-486h-68l-7 76h-3q-34 -40 -71.5 -64t-88.5 -24zM279 705l-96 105l49 34l82 -115zM176 588q-20 0 -33 13t-13 32q0 20 13 33t33 13t32.5 -13t12.5 -33
q0 -19 -12.5 -32t-32.5 -13zM368 588q-20 0 -32.5 13t-12.5 32q0 20 12.5 33t32.5 13t33 -13t13 -33q0 -19 -13 -32t-33 -13z" />
    <glyph glyph-name="uni01E2" unicode="&#x1e2;" horiz-adv-x="822" 
d="M290 376l-61 -118h172v332h-4q-53 -107 -107 -214zM8 0l344 656h411v-70h-278v-206h232v-71h-232v-238h288v-71h-372v191h-206l-99 -191h-88zM430 743v57h268v-57h-268z" />
    <glyph glyph-name="uni01E3" unicode="&#x1e3;" horiz-adv-x="785" 
d="M201 -12q-62 0 -102.5 36t-40.5 102q0 80 71 122.5t223 59.5q0 23 -4 45t-15.5 39t-30.5 27.5t-49 10.5q-40 0 -76 -16t-65 -36l-33 57q34 22 82 42.5t102 20.5t89 -27.5t50 -75.5q29 48 69.5 75.5t90.5 27.5q45 0 79.5 -16t58 -46t35.5 -72.5t12 -94.5q0 -28 -3 -46
h-315q1 -38 13.5 -69t32.5 -53t47 -34t58 -12q35 0 63 11.5t55 28.5l30 -57q-32 -20 -70 -35t-88 -15q-61 0 -102 27.5t-69 63.5q-50 -45 -100.5 -68t-97.5 -23zM224 54q34 0 74 19.5t73 55.5q-8 19 -13 45.5t-6 54.5v25q-58 -8 -98.5 -19t-66 -26t-37 -34.5t-11.5 -42.5
q0 -42 24.5 -60t60.5 -18zM429 278h246q0 75 -29.5 115t-85.5 40q-51 0 -87.5 -41.5t-43.5 -113.5zM279 601v57h266v-57h-266z" />
    <glyph glyph-name="Gcaron" unicode="&#x1e6;" horiz-adv-x="617" 
d="M348 -12q-65 0 -119.5 23t-93.5 66.5t-61 107t-22 143.5q0 79 22.5 142t62.5 107t95.5 67.5t120.5 23.5q34 0 62.5 -7t52 -18.5t42 -26t32.5 -29.5l-46 -54q-25 26 -58 44t-83 18t-90 -18.5t-68 -53t-43.5 -83.5t-15.5 -110q0 -62 14.5 -111.5t42 -84.5t68 -54t93.5 -19
q35 0 66.5 10.5t51.5 28.5v171h-139v69h215v-276q-32 -33 -84 -54.5t-118 -21.5zM310 706l-105 113l36 26l110 -92h4l110 92l36 -26l-105 -113h-86z" />
    <glyph glyph-name="gcaron" unicode="&#x1e7;" horiz-adv-x="504" 
d="M246 -224q-45 0 -82 8.5t-63.5 25.5t-41 41t-14.5 56q0 31 19 59t52 51v4q-18 11 -30.5 30.5t-12.5 48.5q0 31 17 54t36 36v4q-24 20 -43.5 53.5t-19.5 77.5q0 40 14.5 72t39.5 54.5t58.5 34.5t70.5 12q20 0 37.5 -3.5t31.5 -8.5h169v-63h-100q17 -17 28.5 -43t11.5 -57
q0 -39 -14 -70.5t-38 -53t-56.5 -33.5t-69.5 -12q-18 0 -37 4.5t-36 12.5q-13 -11 -22 -24.5t-9 -33.5q0 -23 18 -38t68 -15h94q85 0 127.5 -27.5t42.5 -88.5q0 -34 -17 -64.5t-49 -53.5t-77.5 -36.5t-102.5 -13.5zM246 209q21 0 39.5 8t33 23t22.5 36.5t8 48.5
q0 54 -30 83.5t-73 29.5t-73 -29.5t-30 -83.5q0 -27 8 -48.5t22.5 -36.5t33 -23t39.5 -8zM258 -167q35 0 63.5 8.5t48.5 22t31 31.5t11 37q0 34 -25 47t-73 13h-84q-14 0 -30.5 1.5t-32.5 6.5q-26 -19 -38 -40t-12 -42q0 -39 37.5 -62t103.5 -23zM226 574l-114 140l35 32
l118 -113h4l118 113l35 -32l-114 -140h-82z" />
    <glyph glyph-name="uni01EA" unicode="&#x1ea;" horiz-adv-x="664" 
d="M361 -212q-40 0 -67.5 22t-27.5 65q0 33 17.5 62.5t43.5 51.5q-63 1 -114 26t-87 69.5t-55 107t-19 139.5q0 79 20.5 141.5t57.5 106t88.5 66.5t113.5 23t113.5 -23.5t89 -67t58 -106t20.5 -140.5q0 -67 -13.5 -120t-40 -94t-64.5 -71.5t-87 -52.5q-41 -18 -59.5 -46
t-18.5 -54q0 -23 15 -34.5t33 -11.5q12 0 21.5 3.5t18.5 10.5l23 -45q-14 -11 -37 -19.5t-43 -8.5zM332 61q44 0 79.5 19t61 54.5t39.5 85t14 111.5q0 61 -14 110t-39.5 83t-61 52.5t-79.5 18.5t-79.5 -18.5t-61 -52.5t-39.5 -83t-14 -110q0 -62 14 -111.5t39.5 -85
t61 -54.5t79.5 -19z" />
    <glyph glyph-name="uni01EB" unicode="&#x1eb;" horiz-adv-x="542" 
d="M295 -206q-38 0 -64 21.5t-26 63.5q0 19 5.5 35.5t14 31t18 25.5t18.5 18q-44 2 -83 20.5t-68.5 50.5t-46.5 78t-17 104q0 61 18.5 108.5t49.5 80.5t71.5 50t85.5 17t85.5 -17t71.5 -50t49.5 -80.5t18.5 -108.5q0 -51 -11.5 -89.5t-32.5 -68t-50 -51t-65 -37.5
q-34 -16 -52.5 -44t-18.5 -57q0 -23 14 -34.5t32 -11.5q12 0 21.5 3.5t19.5 9.5l21 -41q-14 -11 -36.5 -19t-42.5 -8zM271 56q31 0 57 13.5t44.5 38t28.5 58.5t10 76t-10 76.5t-28.5 59.5t-44.5 38.5t-57 13.5t-57 -13.5t-44.5 -38.5t-28.5 -59.5t-10 -76.5t10 -76
t28.5 -58.5t44.5 -38t57 -13.5z" />
    <glyph glyph-name="uni01F4" unicode="&#x1f4;" horiz-adv-x="617" 
d="M348 -12q-65 0 -119.5 23t-93.5 66.5t-61 107t-22 143.5q0 79 22.5 142t62.5 107t95.5 67.5t120.5 23.5q34 0 62.5 -7t52 -18.5t42 -26t32.5 -29.5l-46 -54q-25 26 -58 44t-83 18t-90 -18.5t-68 -53t-43.5 -83.5t-15.5 -110q0 -62 14.5 -111.5t42 -84.5t68 -54t93.5 -19
q35 0 66.5 10.5t51.5 28.5v171h-139v69h215v-276q-32 -33 -84 -54.5t-118 -21.5zM336 697l-37 42l142 128l47 -55z" />
    <glyph glyph-name="uni01F5" unicode="&#x1f5;" horiz-adv-x="504" 
d="M246 -224q-45 0 -82 8.5t-63.5 25.5t-41 41t-14.5 56q0 31 19 59t52 51v4q-18 11 -30.5 30.5t-12.5 48.5q0 31 17 54t36 36v4q-24 20 -43.5 53.5t-19.5 77.5q0 40 14.5 72t39.5 54.5t58.5 34.5t70.5 12q20 0 37.5 -3.5t31.5 -8.5h169v-63h-100q17 -17 28.5 -43t11.5 -57
q0 -39 -14 -70.5t-38 -53t-56.5 -33.5t-69.5 -12q-18 0 -37 4.5t-36 12.5q-13 -11 -22 -24.5t-9 -33.5q0 -23 18 -38t68 -15h94q85 0 127.5 -27.5t42.5 -88.5q0 -34 -17 -64.5t-49 -53.5t-77.5 -36.5t-102.5 -13.5zM246 209q21 0 39.5 8t33 23t22.5 36.5t8 48.5
q0 54 -30 83.5t-73 29.5t-73 -29.5t-30 -83.5q0 -27 8 -48.5t22.5 -36.5t33 -23t39.5 -8zM258 -167q35 0 63.5 8.5t48.5 22t31 31.5t11 37q0 34 -25 47t-73 13h-84q-14 0 -30.5 1.5t-32.5 6.5q-26 -19 -38 -40t-12 -42q0 -39 37.5 -62t103.5 -23zM253 573l-42 41l141 167
l58 -55z" />
    <glyph glyph-name="uni01F8" unicode="&#x1f8;" horiz-adv-x="647" 
d="M90 0v656h86l237 -412l71 -136h4q-3 50 -6.5 103.5t-3.5 105.5v339h79v-656h-86l-238 413l-71 135h-4q4 -50 7.5 -101.5t3.5 -103.5v-343h-79zM344 697l-152 115l47 55l142 -128z" />
    <glyph glyph-name="uni01F9" unicode="&#x1f9;" horiz-adv-x="547" 
d="M82 0v486h68l7 -70h3q35 35 73.5 58.5t89.5 23.5q77 0 112.5 -48t35.5 -142v-308h-82v297q0 69 -22 99.5t-70 30.5q-38 0 -67 -19t-66 -56v-352h-82zM305 573l-157 153l58 55l141 -167z" />
    <glyph glyph-name="uni01FC" unicode="&#x1fc;" horiz-adv-x="822" 
d="M290 376l-61 -118h172v332h-4q-53 -107 -107 -214zM8 0l344 656h411v-70h-278v-206h232v-71h-232v-238h288v-71h-372v191h-206l-99 -191h-88zM547 705l-37 42l142 128l47 -55z" />
    <glyph glyph-name="uni01FD" unicode="&#x1fd;" horiz-adv-x="785" 
d="M201 -12q-62 0 -102.5 36t-40.5 102q0 80 71 122.5t223 59.5q0 23 -4 45t-15.5 39t-30.5 27.5t-49 10.5q-40 0 -76 -16t-65 -36l-33 57q34 22 82 42.5t102 20.5t89 -27.5t50 -75.5q29 48 69.5 75.5t90.5 27.5q45 0 79.5 -16t58 -46t35.5 -72.5t12 -94.5q0 -28 -3 -46
h-315q1 -38 13.5 -69t32.5 -53t47 -34t58 -12q35 0 63 11.5t55 28.5l30 -57q-32 -20 -70 -35t-88 -15q-61 0 -102 27.5t-69 63.5q-50 -45 -100.5 -68t-97.5 -23zM224 54q34 0 74 19.5t73 55.5q-8 19 -13 45.5t-6 54.5v25q-58 -8 -98.5 -19t-66 -26t-37 -34.5t-11.5 -42.5
q0 -42 24.5 -60t60.5 -18zM429 278h246q0 75 -29.5 115t-85.5 40q-51 0 -87.5 -41.5t-43.5 -113.5zM398 573l-42 41l141 167l58 -55z" />
    <glyph glyph-name="uni0218" unicode="&#x218;" horiz-adv-x="534" 
d="M272 -12q-69 0 -128 26t-102 71l50 58q35 -37 82.5 -59.5t98.5 -22.5q65 0 101 29.5t36 77.5q0 25 -8.5 42.5t-23 30t-34.5 22.5t-43 21l-94 41q-23 10 -47 24t-43 34t-31 47.5t-12 63.5q0 37 15.5 69t43 55.5t65 36.5t82.5 13q59 0 109 -22.5t85 -58.5l-45 -54
q-30 29 -66.5 45.5t-82.5 16.5q-55 0 -88.5 -25.5t-33.5 -70.5q0 -24 9.5 -40.5t25.5 -29t35 -22t39 -17.5l93 -40q28 -12 53 -27.5t43 -36t28.5 -48t10.5 -63.5q0 -39 -15.5 -73t-44.5 -59.5t-70 -40t-93 -14.5zM186 -226l-8 40q63 5 86 16.5t23 31.5t-18 29.5t-53 12.5
l18 38q65 -8 91 -25.5t26 -51.5q0 -44 -42.5 -65.5t-122.5 -25.5z" />
    <glyph glyph-name="uni0219" unicode="&#x219;" horiz-adv-x="419" 
d="M209 -12q-52 0 -99 19t-82 48l41 55q32 -26 65.5 -42t77.5 -16q48 0 72 22t24 54q0 19 -10 33t-25.5 24.5t-35.5 18.5l-40 16q-26 9 -52 20.5t-46.5 28t-33.5 38.5t-13 53q0 29 11.5 54.5t33 44t52.5 29t70 10.5q46 0 84.5 -16t66.5 -39l-39 -52q-25 19 -52 31t-59 12
q-46 0 -67.5 -21t-21.5 -49q0 -17 9 -29.5t24 -22t34.5 -17t40.5 -15.5q26 -10 52.5 -21t47.5 -27.5t34.5 -40.5t13.5 -58q0 -30 -11.5 -56t-34 -46t-56 -31.5t-76.5 -11.5zM135 -226l-8 40q63 5 86 16.5t23 31.5t-18 29.5t-53 12.5l18 38q65 -8 91 -25.5t26 -51.5
q0 -44 -42.5 -65.5t-122.5 -25.5z" />
    <glyph glyph-name="uni021A" unicode="&#x21a;" horiz-adv-x="536" 
d="M226 0v586h-198v70h480v-70h-198v-586h-84zM182 -226l-8 40q63 5 86 16.5t23 31.5t-18 29.5t-53 12.5l18 38q65 -8 91 -25.5t26 -51.5q0 -44 -42.5 -65.5t-122.5 -25.5z" />
    <glyph glyph-name="uni021B" unicode="&#x21b;" horiz-adv-x="338" 
d="M235 -12q-39 0 -65.5 12t-43 33t-23.5 51t-7 66v269h-72v62l76 5l10 136h69v-136h131v-67h-131v-270q0 -45 16.5 -69.5t58.5 -24.5q13 0 28 4t27 9l16 -62q-20 -7 -43.5 -12.5t-46.5 -5.5zM126 -226l-8 40q63 5 86 16.5t23 31.5t-18 29.5t-53 12.5l18 38q65 -8 91 -25.5
t26 -51.5q0 -44 -42.5 -65.5t-122.5 -25.5z" />
    <glyph glyph-name="uni0237" unicode="&#x237;" horiz-adv-x="247" 
d="M32 -217q-23 0 -41 4t-31 9l17 62q9 -3 21 -5.5t25 -2.5q36 0 48 25t12 70v541h82v-541q0 -74 -30 -118t-103 -44z" />
    <glyph glyph-name="uni0243" unicode="&#x243;" horiz-adv-x="603" 
d="M107 0v177h-77v43l77 4v432h195q50 0 91.5 -9t71 -28t46 -49t16.5 -72q0 -48 -28 -85.5t-86 -52.5v-4q72 -11 112 -51t40 -109q0 -50 -18 -86.5t-51 -61t-78.5 -36.5t-100.5 -12h-210zM190 380h98q84 0 121.5 28.5t37.5 83.5q0 54 -39.5 78t-116.5 24h-101v-214zM190 63
h115q85 0 132 33.5t47 103.5q0 65 -46.5 95t-132.5 30h-115v-101h152v-47h-152v-114z" />
    <glyph glyph-name="uni0250" unicode="&#x250;" horiz-adv-x="512" 
d="M270 -12q-52 0 -89 15t-60.5 42t-34.5 65.5t-11 85.5v290h68l7 -68h2q35 36 79.5 58t93.5 22q57 0 94 -32.5t37 -94.5q0 -83 -71.5 -129.5t-227.5 -63.5q0 -22 6 -44t20 -39t38 -28t60 -11q41 0 75.5 16t62.5 36l32 -57q-32 -22 -79 -42.5t-102 -20.5zM157 232
q61 8 103 20t67.5 27.5t36.5 36t11 44.5q0 38 -22.5 55t-54.5 17q-34 0 -68.5 -18t-72.5 -58v-124z" />
    <glyph glyph-name="uni0251" unicode="&#x251;" horiz-adv-x="555" 
d="M248 -12q-92 0 -146.5 66t-54.5 188q0 59 17.5 106.5t47 80.5t67.5 51t80 18q41 0 73 -15t65 -44h2l7 47h67v-486h-68l-7 57h-3q-29 -28 -66.5 -48.5t-80.5 -20.5zM266 57q34 0 64 16.5t60 50.5v254q-31 28 -59.5 39.5t-58.5 11.5q-29 0 -54.5 -13.5t-44.5 -38t-30 -58.5
t-11 -76q0 -88 35 -137t99 -49z" />
    <glyph glyph-name="uni0252" unicode="&#x252;" horiz-adv-x="555" 
d="M297 -12q-68 0 -139 59h-3l-6 -47h-67v486h68l7 -57h3q33 29 72.5 49t82.5 20q47 0 83 -17.5t60 -50t36.5 -78t12.5 -102.5q0 -62 -17 -110.5t-46 -82.5t-67 -51.5t-80 -17.5zM283 57q30 0 55.5 13.5t44 38t29 60.5t10.5 81q0 40 -7 73t-22.5 56.5t-40 36.5t-58.5 13
q-31 0 -62.5 -17t-67.5 -49v-255q33 -28 64 -39.5t55 -11.5z" />
    <glyph glyph-name="uni0253" unicode="&#x253;" horiz-adv-x="555" 
d="M297 -12q-34 0 -70.5 15.5t-68.5 44.5h-3l-7 -48h-66v537q0 42 10.5 76t31.5 59t52.5 38.5t74.5 13.5q22 0 43.5 -4.5t38.5 -11.5l-19 -63q-27 12 -55 12q-48 0 -70.5 -32t-24.5 -89l-2 -113q33 29 72 48.5t80 19.5q47 0 83 -17.5t60.5 -49t37 -77t12.5 -100.5
q0 -62 -17 -110t-46 -81t-67 -50.5t-80 -17.5zM283 57q30 0 55.5 13t44 37.5t29 59.5t10.5 79q0 79 -29.5 127.5t-98.5 48.5q-60 0 -130 -67v-247q32 -28 63.5 -39.5t55.5 -11.5z" />
    <glyph glyph-name="uni0254" unicode="&#x254;" horiz-adv-x="456" 
d="M182 -12q-45 0 -85 16.5t-72 45.5l35 55q23 -20 52 -34.5t62 -14.5t60.5 13.5t48 38t31.5 58.5t11 76t-11 77t-30 59.5t-45.5 38t-56.5 13.5q-35 0 -59.5 -11.5t-46.5 -31.5l-42 54q27 23 64.5 40t92.5 17q43 0 83 -17t70 -49.5t48 -80t18 -109.5q0 -60 -18 -107.5
t-48.5 -80t-72 -49.5t-89.5 -17z" />
    <glyph glyph-name="uni0255" unicode="&#x255;" horiz-adv-x="456" 
d="M284 54q36 0 59.5 15t23.5 38q0 17 -12.5 31t-39.5 14t-56.5 -19t-57.5 -53q37 -26 83 -26zM123 -69l-66 28q11 29 24 54.5t27 48.5q-29 32 -45.5 77.5t-16.5 102.5q0 61 19 108.5t51 80.5t74.5 50t89.5 17q48 0 82 -17t60 -40l-40 -51q-21 19 -45.5 31t-53.5 12
q-34 0 -62.5 -14t-49.5 -39t-32.5 -60t-11.5 -78q0 -34 8 -63t22 -52q38 41 79.5 62.5t83.5 21.5q54 0 84 -28.5t30 -74.5q0 -25 -10.5 -46.5t-30 -38t-48 -26t-63.5 -9.5q-68 0 -121 32q-23 -42 -38 -89z" />
    <glyph glyph-name="uni0256" unicode="&#x256;" horiz-adv-x="555" 
d="M514 -183q-63 0 -92 36.5t-29 100.5l1 102q-30 -29 -66.5 -48.5t-79.5 -19.5q-92 0 -146.5 66t-54.5 188q0 59 17.5 106.5t46.5 80.5t67 51t80 18t73 -15t63 -41l-4 83v199h83v-752q0 -42 10.5 -65t39.5 -23q10 0 19 3t17 6l16 -63q-11 -5 -26.5 -9t-34.5 -4zM266 57
q34 0 64 16.5t60 50.5v254q-31 28 -59.5 39.5t-58.5 11.5q-29 0 -54.5 -13.5t-44.5 -38t-30 -58.5t-11 -76q0 -88 35 -137t99 -49z" />
    <glyph glyph-name="uni0257" unicode="&#x257;" horiz-adv-x="555" 
d="M248 -12q-92 0 -146.5 66t-54.5 188q0 59 17.5 106.5t46.5 80.5t67 51t80 18t73 -15t63 -41l-1 133q0 70 31.5 110.5t98.5 40.5q17 0 31 -2.5t25 -7.5l-16 -63q-7 2 -14.5 4t-16.5 2q-33 0 -46 -25t-13 -67v-567h-68l-7 57h-3q-29 -28 -66.5 -48.5t-80.5 -20.5zM266 57
q34 0 64 16.5t60 50.5v254q-31 28 -59.5 39.5t-58.5 11.5q-29 0 -54.5 -13.5t-44.5 -38t-30 -58.5t-11 -76q0 -88 35 -137t99 -49z" />
    <glyph glyph-name="uni0258" unicode="&#x258;" horiz-adv-x="496" 
d="M221 -12q-50 0 -91 15t-73 35l29 54q27 -17 58.5 -27.5t66.5 -10.5q72 0 112.5 45.5t44.5 123.5h-327q-2 9 -3 21.5t-1 25.5q0 52 14.5 94t41 72t64 46t84.5 16q44 0 82 -17.5t66.5 -50.5t44.5 -80.5t16 -107.5t-17 -107t-48 -79.5t-73 -50t-91 -17.5zM110 282h259
q-7 72 -41 111.5t-89 39.5q-57 0 -93 -38.5t-36 -112.5z" />
    <glyph glyph-name="uni0259" unicode="&#x259;" horiz-adv-x="496" 
d="M238 -12q-46 0 -83 16t-63.5 46.5t-40.5 74t-14 97.5q0 14 1 26.5t3 21.5h327q-4 73 -41.5 118t-103.5 45q-37 0 -67 -11.5t-59 -30.5l-29 57q34 23 75.5 36.5t92.5 13.5q46 0 85 -17t67.5 -50t45 -80t16.5 -107t-16.5 -107.5t-45 -80.5t-67.5 -50.5t-83 -17.5zM236 54
q57 0 91.5 41t41.5 116h-259q0 -79 34 -118t92 -39z" />
    <glyph glyph-name="uni025A" unicode="&#x25a;" horiz-adv-x="648" 
d="M249 -12q-50 0 -87.5 17t-64 45.5t-41.5 66.5t-19 80l323 132q-17 53 -53 78.5t-84 25.5q-38 0 -67 -11.5t-57 -30.5l-30 57q34 23 73.5 36.5t89.5 13.5q71 0 122.5 -36.5t76.5 -103.5l81 33l44 -17q2 -29 6.5 -46.5t10.5 -27.5t14 -13.5t19 -3.5q12 0 22 4.5t18 10.5
l22 -43q-12 -9 -28.5 -17t-37.5 -8q-15 0 -29.5 4.5t-27.5 16t-23.5 30t-15.5 45.5l-60 -24q2 -15 3.5 -30.5t1.5 -32.5q0 -52 -14.5 -97.5t-40.5 -79.5t-63.5 -54t-83.5 -20zM247 53q29 0 52.5 14t40 38.5t25 57t8.5 69.5q0 11 -0.5 20.5t-1.5 18.5l-258 -105
q10 -54 46 -83.5t88 -29.5z" />
    <glyph glyph-name="uni025B" unicode="&#x25b;" horiz-adv-x="440" 
d="M249 -12q-41 0 -77.5 10t-63.5 29t-42.5 46t-15.5 61q0 26 9 46.5t24 35.5t34.5 24.5t40.5 15.5v4q-40 14 -61 43.5t-21 63.5q0 33 14.5 58t38.5 41t56 24t68 8q44 0 79.5 -12.5t67.5 -35.5l-33 -55q-27 17 -53.5 27.5t-58.5 10.5q-41 0 -69 -19t-28 -57q0 -33 27 -54
t86 -21h55v-59h-70q-60 0 -92 -21t-32 -61q0 -41 35 -64t91 -23q33 0 63.5 10.5t62.5 33.5l35 -55q-42 -30 -81 -42.5t-89 -12.5z" />
    <glyph glyph-name="uni025C" unicode="&#x25c;" horiz-adv-x="456" 
d="M210 -12q-50 0 -90 12.5t-83 42.5l35 55q33 -23 63 -33.5t63 -10.5q56 0 91 23t35 64q0 40 -32 61t-92 21h-69v59h54q59 0 86 21t27 54q0 38 -26 57t-67 19q-32 0 -60.5 -10.5t-55.5 -27.5l-33 55q33 23 71.5 35.5t83.5 12.5q34 0 65 -8t54 -24t36.5 -41t13.5 -58
q0 -34 -21 -63.5t-61 -43.5v-4q21 -6 40.5 -15.5t34.5 -24.5t24 -35.5t9 -46.5q0 -34 -15.5 -61t-42 -46t-62 -29t-76.5 -10z" />
    <glyph glyph-name="uni025E" unicode="&#x25e;" horiz-adv-x="546" 
d="M259 -12q-44 0 -82.5 10t-66.5 29t-44 46t-16 61q0 26 9 46.5t24 35.5t34.5 24.5t40.5 15.5v4q-40 14 -61 43.5t-21 63.5q0 33 14 58t38.5 41t57 24t70.5 8q50 0 94.5 -16t78 -48t53 -80t19.5 -112q0 -63 -19 -110.5t-51.5 -79.5t-76.5 -48t-95 -16zM260 54q72 0 114 48
t42 140q0 93 -43 142t-116 49q-42 0 -70.5 -19t-28.5 -57q0 -33 26 -54t83 -21h27v-59h-42q-58 0 -89 -21t-31 -61q0 -41 34.5 -64t93.5 -23z" />
    <glyph glyph-name="uni025F" unicode="&#x25f;" horiz-adv-x="270" 
d="M43 -217q-23 0 -41 4t-31 9l17 62q9 -3 21 -5.5t25 -2.5q36 0 48 25t12 70v286h-86v43l86 5v207h82v-207h83v-48h-83v-286q0 -74 -30 -118t-103 -44z" />
    <glyph glyph-name="uni0260" unicode="&#x260;" horiz-adv-x="559" 
d="M259 -216q-45 0 -90.5 13.5t-83.5 39.5l30 58q36 -24 72.5 -34.5t71.5 -10.5q67 0 99.5 34.5t34.5 93.5l1 92q-28 -27 -64.5 -46t-79.5 -19q-46 0 -83 17t-63 48.5t-40 77t-14 102.5t17.5 103t46.5 78t67.5 49.5t79.5 17.5q42 0 72 -15t62 -41l-1 41q0 66 31.5 106
t99.5 40q17 0 31 -2.5t25 -7.5l-16 -63q-14 6 -31 6q-33 0 -46 -25t-13 -67v-494q0 -91 -56 -141.5t-160 -50.5zM268 73q34 0 63.5 16.5t61.5 50.5v238q-32 28 -60.5 39.5t-58.5 11.5q-29 0 -54.5 -13t-44.5 -37t-30 -56.5t-11 -71.5q0 -82 35 -130t99 -48z" />
    <glyph glyph-name="uni0261" unicode="&#x261;" horiz-adv-x="559" 
d="M259 -216q-45 0 -90.5 13.5t-83.5 39.5l30 58q36 -24 72.5 -34.5t71.5 -10.5q67 0 99.5 34.5t34.5 93.5l1 92q-28 -27 -64.5 -46t-79.5 -19q-46 0 -83 17t-63 48.5t-40 77t-14 102.5t17.5 103t46.5 78t67.5 49.5t79.5 17.5q42 0 73.5 -14.5t62.5 -42.5h2l7 45h69v-510
q0 -91 -56 -141.5t-160 -50.5zM268 73q34 0 63.5 16.5t61.5 50.5v238q-32 28 -60.5 39.5t-58.5 11.5q-29 0 -54.5 -13t-44.5 -37t-30 -56.5t-11 -71.5q0 -82 35 -130t99 -48z" />
    <glyph glyph-name="uni0262" unicode="&#x262;" horiz-adv-x="497" 
d="M280 -12q-49 0 -92 16.5t-74.5 49t-49.5 80.5t-18 110q0 59 18.5 106t51 80t76 50.5t93.5 17.5q57 0 93 -18.5t62 -41.5l-40 -51q-21 18 -46.5 32t-64.5 14q-33 0 -62.5 -12.5t-51 -37t-34 -59.5t-12.5 -80q0 -90 43 -140t115 -50q27 0 50 8t38 22v119h-108v59h181v-213
q-27 -26 -70.5 -43.5t-97.5 -17.5z" />
    <glyph glyph-name="uni0263" unicode="&#x263;" horiz-adv-x="467" 
d="M236 -224q-54 0 -82.5 32t-28.5 84q0 35 15 71.5t41 88.5l-169 434h85l92 -259q11 -33 22.5 -61.5t22.5 -60.5h4q11 32 22 60.5t22 61.5l92 259h81l-166 -433q13 -26 23.5 -48t18 -41t11.5 -36.5t4 -35.5q0 -52 -28.5 -84t-81.5 -32zM236 -167q20 0 29.5 15t9.5 38
q0 27 -10 58.5t-28 66.5h-4q-17 -35 -27 -67.5t-10 -57.5q0 -23 10 -38t30 -15z" />
    <glyph glyph-name="uni0264" unicode="&#x264;" horiz-adv-x="511" 
d="M256 -12q-85 0 -129.5 44.5t-44.5 122.5q0 55 33.5 108t83.5 100q-26 32 -54 49.5t-56 17.5t-47 -14l-26 60q15 11 38 16.5t46 5.5q41 0 81 -23.5t75 -63.5q35 40 74.5 63.5t80.5 23.5q23 0 46 -5.5t38 -16.5l-26 -60q-20 14 -47 14q-29 0 -56.5 -17.5t-53.5 -49.5
q49 -47 83 -100t34 -108q0 -78 -44 -122.5t-129 -44.5zM256 56q48 0 71 29.5t23 71.5q0 44 -27.5 87t-66.5 80q-40 -37 -67 -80t-27 -87q0 -42 23 -71.5t71 -29.5z" />
    <glyph glyph-name="uni0265" unicode="&#x265;" horiz-adv-x="547" 
d="M382 -205v174l5 106q-35 -39 -73.5 -63t-89.5 -24q-78 0 -113.5 48t-35.5 142v308h83v-297q0 -69 21.5 -99.5t69.5 -30.5q38 0 68 19t65 63v345h83v-691h-83z" />
    <glyph glyph-name="uni0266" unicode="&#x266;" horiz-adv-x="544" 
d="M82 0v537q0 42 10.5 76t31.5 59t52.5 38.5t74.5 13.5q22 0 43.5 -4.5t38.5 -11.5l-19 -63q-27 12 -55 12q-48 0 -70.5 -32t-24.5 -89l-3 -126q35 33 73 57t89 24q77 0 112.5 -48t35.5 -142v-301h-82v290q0 69 -22 99t-70 30q-38 0 -67 -18.5t-66 -55.5v-345h-82z" />
    <glyph glyph-name="uni0267" unicode="&#x267;" horiz-adv-x="544" 
d="M338 -183q-23 0 -41 4t-30 9l16 63q9 -3 21 -6t25 -3q36 0 48 25.5t12 70.5v310q0 69 -22 99t-70 30q-38 0 -67 -18.5t-66 -55.5v-345h-82v537q0 42 10.5 76t31.5 59t52.5 38.5t74.5 13.5q22 0 43.5 -4.5t38.5 -11.5l-19 -63q-27 12 -55 12q-48 0 -70.5 -32t-24.5 -89
l-3 -126q35 33 73 57t89 24q77 0 112.5 -48t35.5 -142v-322q0 -74 -30 -118t-103 -44z" />
    <glyph glyph-name="uni0268" unicode="&#x268;" horiz-adv-x="270" 
d="M8 231v43l86 5v207h82v-207h83v-48h-83v-231h-82v231h-86zM136 586q-24 0 -40.5 15t-16.5 38q0 24 16.5 38.5t40.5 14.5t40.5 -14.5t16.5 -38.5q0 -23 -16.5 -38t-40.5 -15z" />
    <glyph glyph-name="uni026A" unicode="&#x26a;" horiz-adv-x="341" 
d="M46 0v67h84v352h-84v67h249v-67h-83v-352h83v-67h-249z" />
    <glyph glyph-name="uni026C" unicode="&#x26c;" horiz-adv-x="302" 
d="M121 319q-66 0 -96.5 24.5t-30.5 62.5q0 34 23 56.5t60 22.5q18 0 31 -5.5t23 -14.5v247h82v-346h83v-47h-83v-227q0 -20 7 -28t16 -8h7.5t10.5 2l11 -62q-8 -4 -19 -6t-28 -2q-47 0 -67 28t-20 82v221h-10zM111 366h20v6q0 11 -2.5 23t-8 21.5t-15 16t-24.5 6.5
q-18 0 -26 -10t-8 -24q0 -16 15.5 -27.5t48.5 -11.5z" />
    <glyph glyph-name="uni026D" unicode="&#x26d;" horiz-adv-x="255" 
d="M205 -183q-68 0 -95.5 41.5t-27.5 113.5v740h82v-740q0 -42 10.5 -65t39.5 -23q11 0 19.5 3t16.5 6l17 -63q-11 -5 -26.5 -9t-35.5 -4z" />
    <glyph glyph-name="uni026E" unicode="&#x26e;" horiz-adv-x="577" 
d="M352 -217q-36 0 -65.5 6.5t-53.5 17.5t-43 25t-35 29l41 52q26 -24 61 -43t88 -19q27 0 50.5 10.5t41 30t28 47t10.5 61.5q0 62 -34.5 97t-99.5 35q-21 0 -33.5 -4t-29.5 -12l-33 45l192 258h-273v-419h-82v712h82v-226h373v-44l-188 -253q48 5 87 -7t66 -37t41.5 -62
t14.5 -81q0 -53 -17 -93.5t-45.5 -68.5t-66 -42.5t-77.5 -14.5z" />
    <glyph glyph-name="uni026F" unicode="&#x26f;" horiz-adv-x="829" 
d="M225 -12q-75 0 -111.5 48t-36.5 142v308h82v-297q0 -69 22 -99.5t69 -30.5q55 0 121 75v352h83v-297q0 -69 21.5 -99.5t68.5 -30.5q54 0 122 75v352h82v-486h-68l-7 70h-2q-32 -34 -70 -58t-82 -24q-56 0 -87.5 25t-46.5 68q-38 -42 -76.5 -67.5t-83.5 -25.5z" />
    <glyph glyph-name="uni0270" unicode="&#x270;" horiz-adv-x="829" 
d="M666 -205v173l4 103q-35 -38 -72 -60.5t-79 -22.5q-56 0 -87.5 25t-46.5 68q-38 -42 -76.5 -67.5t-83.5 -25.5q-75 0 -111.5 48t-36.5 142v308h82v-297q0 -69 22 -99.5t69 -30.5q55 0 121 75v352h83v-297q0 -69 21.5 -99.5t68.5 -30.5q54 0 122 75v352h82v-691h-82z" />
    <glyph glyph-name="uni0271" unicode="&#x271;" horiz-adv-x="829" 
d="M624 -183q-21 0 -38.5 4t-29.5 9l16 63q8 -3 19.5 -6t23.5 -3q35 0 45.5 25.5t10.5 70.5v317q0 69 -22 99.5t-68 30.5q-55 0 -122 -75v-352h-82v297q0 69 -22 99.5t-69 30.5q-55 0 -122 -75v-352h-82v486h68l7 -70h3q32 35 69.5 58.5t81.5 23.5q56 0 87.5 -24.5
t46.5 -68.5q38 42 76.5 67.5t83.5 25.5q75 0 111.5 -48t36.5 -142v-329q0 -74 -29.5 -118t-99.5 -44z" />
    <glyph glyph-name="uni0272" unicode="&#x272;" horiz-adv-x="547" 
d="M41 -183q-19 0 -35 4t-26 9l16 63q8 -3 16.5 -6t19.5 -3q29 0 39.5 23t10.5 65v514h70l5 -70h3q35 35 73.5 58.5t89.5 23.5q77 0 112.5 -48t35.5 -142v-308h-82v297q0 69 -22 99.5t-70 30.5q-38 0 -67 -19t-66 -56v-380q0 -72 -27.5 -113.5t-95.5 -41.5z" />
    <glyph glyph-name="uni0273" unicode="&#x273;" horiz-adv-x="547" 
d="M512 -183q-68 0 -95.5 41.5t-27.5 113.5v325q0 69 -22 99.5t-70 30.5q-38 0 -67 -19t-66 -56v-352h-82v486h68l7 -70h3q35 35 73.5 58.5t89.5 23.5q77 0 112.5 -48t35.5 -142v-336q0 -42 10.5 -65t39.5 -23q11 0 19.5 3t16.5 6l16 -63q-10 -5 -26 -9t-35 -4z" />
    <glyph glyph-name="uni0274" unicode="&#x274;" horiz-adv-x="543" 
d="M82 0v486h78l169 -275q14 -23 29 -52t29 -52h4q-3 48 -5.5 93t-2.5 84v202h78v-486h-77l-171 275q-14 22 -29 51.5t-28 52.5h-4q3 -48 5.5 -93t2.5 -84v-202h-78z" />
    <glyph glyph-name="uni0275" unicode="&#x275;" horiz-adv-x="542" 
d="M271 -12q-45 0 -86 16t-72 48t-49 79.5t-18 110.5t18 111t49 80.5t72 48.5t86 16t86 -16t72 -48.5t49 -80.5t18 -111t-18 -110.5t-49 -79.5t-72 -48t-86 -16zM271 434q-58 0 -97 -40t-48 -112h291q-9 72 -48 112t-98 40zM271 53q63 0 102.5 44.5t44.5 125.5h-293
q5 -81 44.5 -125.5t101.5 -44.5z" />
    <glyph glyph-name="uni0276" unicode="&#x276;" horiz-adv-x="699" 
d="M287 -12q-50 0 -93.5 16.5t-76.5 48.5t-52 79.5t-19 110.5t19 110.5t52 79.5t76.5 48.5t93.5 16.5q25 0 48.5 -2t53.5 -10h280v-63h-229v-141h192v-59h-192v-160h239v-63h-290q-29 -8 -53 -10t-49 -2zM292 55q15 0 32.5 3.5t33.5 8.5v351q-16 5 -33.5 8.5t-32.5 3.5
q-33 0 -62.5 -11.5t-51 -35t-34 -58.5t-12.5 -82q0 -48 12.5 -83.5t34 -58.5t51 -34.5t62.5 -11.5z" />
    <glyph glyph-name="uni0278" unicode="&#x278;" horiz-adv-x="680" 
d="M131 244q0 -44 13.5 -78.5t36.5 -58.5t54.5 -38t66.5 -15v378q-35 -2 -66.5 -15t-54.5 -37t-36.5 -58.5t-13.5 -77.5zM549 244q0 87 -47.5 136t-123.5 52v-378q36 1 67 15t54 38t36.5 58.5t13.5 78.5zM302 -205v196q-50 1 -96 18.5t-81.5 50t-57 78.5t-21.5 106
q0 59 21.5 105t57 78t81.5 49t96 19v217h76v-217q51 -2 97 -19t81.5 -49t56.5 -78t21 -105q0 -60 -21.5 -106t-57 -78.5t-82 -50t-95.5 -18.5v-196h-76z" />
    <glyph glyph-name="uni0279" unicode="&#x279;" horiz-adv-x="347" 
d="M49 -12q-29 0 -52 10l16 72q13 -4 23 -6t24 -2q31 0 64.5 25t58.5 87v312h82v-486h-68l-7 89h-2q-26 -47 -61.5 -74t-77.5 -27z" />
    <glyph glyph-name="uni027A" unicode="&#x27a;" horiz-adv-x="347" 
d="M49 -12q-29 0 -52 10l16 72q13 -4 23 -6t24 -2q31 0 64.5 25t58.5 87v538h82v-712h-68l-7 89h-2q-26 -47 -61.5 -74t-77.5 -27z" />
    <glyph glyph-name="uni027B" unicode="&#x27b;" horiz-adv-x="347" 
d="M306 -183q-63 0 -89.5 38t-26.5 107v127h-2q-26 -47 -61.5 -74t-77.5 -27q-29 0 -52 10l16 72q13 -4 23 -6t24 -2q31 0 64.5 25t58.5 87v312h82v-514q0 -42 10.5 -65t39.5 -23q11 0 19.5 3t16.5 6l17 -63q-11 -5 -27 -9t-35 -4z" />
    <glyph glyph-name="uni027D" unicode="&#x27d;" horiz-adv-x="347" 
d="M205 -183q-68 0 -95.5 41.5t-27.5 113.5v514h68l7 -88h3q25 46 60.5 73t77.5 27q29 0 52 -10l-16 -72q-12 4 -22 6t-25 2q-31 0 -64.5 -25t-58.5 -87v-340q0 -42 10.5 -65t39.5 -23q11 0 19.5 3t16.5 6l17 -63q-11 -5 -26.5 -9t-35.5 -4z" />
    <glyph glyph-name="uni027E" unicode="&#x27e;" horiz-adv-x="334" 
d="M82 0v314q0 86 44.5 135t124.5 49q52 0 85 -14l-15 -69q-17 7 -29.5 9t-32.5 2q-18 0 -35.5 -8t-30.5 -24t-21 -40.5t-8 -56.5v-297h-82z" />
    <glyph glyph-name="uni0280" unicode="&#x280;" horiz-adv-x="495" 
d="M82 0v486h172q39 0 73 -7.5t58.5 -24.5t38.5 -44.5t14 -67.5q0 -58 -30.5 -92t-75.5 -48l131 -202h-91l-117 192h-91v-192h-82zM164 252h76q55 0 85.5 22.5t30.5 65.5t-30.5 62.5t-85.5 19.5h-76v-170z" />
    <glyph glyph-name="uni0281" unicode="&#x281;" horiz-adv-x="495" 
d="M241 0q-39 0 -73 7.5t-58.5 25t-38.5 45t-14 67.5q0 59 30.5 93t75.5 48l-131 200h92l116 -189h91v189h82v-486h-172zM255 64h76v173h-76q-54 0 -84.5 -23.5t-30.5 -66.5t30.5 -63t84.5 -20z" />
    <glyph glyph-name="uni0282" unicode="&#x282;" horiz-adv-x="419" 
d="M209 -12q-56 0 -107 20v-28q0 -45 12 -71t49 -26q13 0 24.5 2.5t21.5 5.5l16 -61q-13 -5 -30.5 -9t-40.5 -4q-68 0 -97 44t-29 118v69l41 54q32 -23 65.5 -36.5t77.5 -13.5q48 0 72 22t24 54q0 19 -10 33t-25.5 24.5t-35.5 18.5l-40 16q-26 9 -52 20.5t-46.5 28
t-33.5 38.5t-13 53q0 29 11.5 54.5t33 44t52.5 29t70 10.5q46 0 84.5 -16t66.5 -39l-39 -52q-25 19 -52 31t-59 12q-46 0 -67.5 -21t-21.5 -49q0 -17 9 -29.5t24 -22t34.5 -17t40.5 -15.5q26 -10 52.5 -21t47.5 -27.5t34.5 -40.5t13.5 -58q0 -30 -11.5 -56t-34 -46
t-56 -31.5t-76.5 -11.5z" />
    <glyph glyph-name="uni0283" unicode="&#x283;" horiz-adv-x="247" 
d="M32 -217q-23 0 -41 4t-31 9l17 62q9 -3 21 -5.5t25 -2.5q36 0 48 25t12 70v619q0 75 32.5 118.5t110.5 43.5q20 0 35 -4t26 -9l-16 -63q-8 3 -16.5 6t-19.5 3q-42 0 -56 -25.5t-14 -70.5v-618q0 -74 -30 -118t-103 -44z" />
    <glyph glyph-name="uni0284" unicode="&#x284;" horiz-adv-x="270" 
d="M43 -217q-23 0 -41 4t-31 9l17 62q9 -3 21 -5.5t25 -2.5q36 0 48 25t12 70v286h-86v43l86 5v285q0 75 32.5 118.5t110.5 43.5q20 0 35 -4t26 -9l-16 -63q-8 3 -16.5 6t-19.5 3q-42 0 -56 -25.5t-14 -70.5v-284h83v-48h-83v-286q0 -74 -30 -118t-103 -44z" />
    <glyph glyph-name="uni0288" unicode="&#x288;" horiz-adv-x="338" 
d="M235 -184q-39 0 -65.5 11.5t-43 33t-23.5 51.5t-7 66v441h-72v62l76 5l10 136h69v-136h131v-67h-131v-442q0 -45 16.5 -69.5t58.5 -24.5q13 0 28 4t27 9l16 -62q-20 -7 -43.5 -12.5t-46.5 -5.5z" />
    <glyph glyph-name="uni0289" unicode="&#x289;" horiz-adv-x="575" 
d="M8 262v43l86 5v176h83v-176h222v176h82v-176h82v-48h-82v-262h-68l-7 76h-3q-34 -40 -71.5 -64t-88.5 -24q-78 0 -113.5 48t-35.5 142v84h-86zM268 59q38 0 67 19.5t64 62.5v121h-222v-73q0 -69 21.5 -99.5t69.5 -30.5z" />
    <glyph glyph-name="uni028A" unicode="&#x28a;" horiz-adv-x="541" 
d="M271 -12q-53 0 -94.5 18.5t-70 49.5t-43 71t-14.5 82q0 37 7.5 68.5t19.5 57.5t27.5 46.5t31.5 35.5v2h-98v67h186v-53q-41 -34 -66 -84t-25 -122q0 -35 9 -66t26 -54t43 -37t61 -14q34 0 60 14t43 37t26 54t9 66q0 72 -25 122t-65 84v53h185v-67h-98v-2
q16 -15 31.5 -35.5t28 -46.5t20 -57.5t7.5 -68.5q0 -42 -15 -82t-43.5 -71t-69.5 -49.5t-94 -18.5z" />
    <glyph glyph-name="uni028B" unicode="&#x28b;" horiz-adv-x="530" 
d="M262 -12q-41 0 -75 12.5t-59 39t-39 66.5t-14 96v284h83v-277q0 -41 8.5 -70t22.5 -47.5t33.5 -27t42.5 -8.5q31 0 55.5 16.5t41 46t25 69t8.5 86.5q0 78 -19 118t-60 40q-13 0 -28 -6l-13 64q23 8 58 8q68 0 107.5 -51.5t39.5 -160.5q0 -64 -14 -118.5t-41.5 -94.5
t-68 -62.5t-94.5 -22.5z" />
    <glyph glyph-name="uni028C" unicode="&#x28c;" horiz-adv-x="467" 
d="M12 0l172 486h96l175 -486h-85l-92 276q-11 36 -22.5 72.5t-22.5 71.5h-4q-11 -35 -22.5 -71.5t-22.5 -72.5l-91 -276h-81z" />
    <glyph glyph-name="uni028D" unicode="&#x28d;" horiz-adv-x="718" 
d="M24 0l130 486h101l70 -261q8 -35 16 -69t17 -71h4q8 37 15.5 71.5t17.5 69.5l68 260h96l135 -486h-84l-72 281q-8 35 -14.5 68t-14.5 67h-4q-15 -68 -33 -135l-75 -281h-80l-76 281q-9 35 -17 68t-17 67h-4q-8 -34 -15 -67t-15 -68l-71 -281h-78z" />
    <glyph glyph-name="uni028E" unicode="&#x28e;" horiz-adv-x="467" 
d="M12 0l194 555q13 36 29 67t38 53.5t50 35.5t65 13q17 0 31 -2.5t26 -7.5l-16 -65l-18 4.5t-19 2.5q-42 0 -68.5 -29.5t-41.5 -74.5l-22 -65l195 -487h-84l-100 269q-11 32 -23 67.5t-24 69.5h-4q-11 -33 -21 -69t-20 -68l-86 -269h-81z" />
    <glyph glyph-name="uni028F" unicode="&#x28f;" horiz-adv-x="415" 
d="M167 0v164l-168 322h88l66 -138q13 -29 26.5 -56t27.5 -56h4q14 29 26.5 56t25.5 56l66 138h87l-167 -322v-164h-82z" />
    <glyph glyph-name="uni0290" unicode="&#x290;" horiz-adv-x="425" 
d="M431 -183q-67 0 -95.5 40.5t-28.5 106.5v36h-276v44l256 375h-228v67h332v-44l-256 -375h254v-95q0 -42 11 -65t40 -23q10 0 19 3t17 6l16 -63q-11 -5 -26.5 -9t-34.5 -4z" />
    <glyph glyph-name="uni0291" unicode="&#x291;" horiz-adv-x="449" 
d="M238 -81l-48 10q8 39 18 71h-177v44l256 375h-228v67h327v-44l-255 -375q25 -1 49 -1.5t49 -1.5q28 71 63.5 109.5t79.5 38.5q43 0 67 -23.5t24 -68.5q0 -25 -9.5 -46.5t-28.5 -38t-48 -26t-69 -9.5h-51q-5 -18 -9.5 -38t-9.5 -43zM329 63q40 0 61 18t21 41
q0 17 -9.5 28.5t-31.5 11.5q-23 0 -46.5 -24t-44.5 -75h50z" />
    <glyph glyph-name="uni0292" unicode="&#x292;" horiz-adv-x="425" 
d="M200 -217q-36 0 -65.5 6.5t-53.5 17.5t-43 25t-35 29l41 52q26 -24 61 -43t88 -19q27 0 50.5 10.5t41 30t28 47t10.5 61.5q0 62 -34.5 97t-99.5 35q-21 0 -33.5 -4t-29.5 -12l-33 45l192 258h-241v67h341v-44l-188 -253q48 5 87 -7t66 -37t41.5 -62t14.5 -81
q0 -53 -17 -93.5t-45.5 -68.5t-66 -42.5t-77.5 -14.5z" />
    <glyph glyph-name="uni0294" unicode="&#x294;" horiz-adv-x="417" 
d="M146 0v324q87 50 127.5 96.5t40.5 109.5q0 58 -33 92t-93 34q-51 0 -86 -22t-60 -51l-44 54q15 16 34.5 32t43.5 28t53.5 19.5t64.5 7.5q42 0 79 -12t64.5 -36t43.5 -60t16 -84q0 -43 -12.5 -77t-35 -63.5t-53.5 -54.5t-68 -50v-287h-82z" />
    <glyph glyph-name="uni0295" unicode="&#x295;" horiz-adv-x="443" 
d="M200 0v287q-37 25 -68 50t-53.5 54.5t-35 63.5t-12.5 77q0 48 16.5 84t45.5 60t68 36t83 12q33 0 61 -7.5t51 -19.5t41 -28t33 -32l-44 -54q-23 28 -56 50.5t-80 22.5q-65 0 -100.5 -34t-35.5 -92q0 -63 40.5 -109.5t127.5 -96.5v-324h-82z" />
    <glyph glyph-name="uni0298" unicode="&#x298;" horiz-adv-x="525" 
d="M263 -12q-47 0 -84.5 22t-64 67.5t-41 115.5t-14.5 166q0 180 55 272.5t149 92.5q93 0 148 -93.5t55 -271.5q0 -96 -14.5 -166t-40.5 -115.5t-64 -67.5t-84 -22zM263 56q26 0 49 16t40 52t26.5 93.5t9.5 141.5q0 76 -9.5 132t-26.5 93t-40 54.5t-49 17.5q-27 0 -50 -17.5
t-40 -54.5t-26.5 -93t-9.5 -132q0 -84 9.5 -141.5t26.5 -93.5t40 -52t50 -16zM263 312q-20 0 -34 13.5t-14 33.5q0 21 14 34t34 13q19 0 33 -13t14 -34q0 -20 -14 -33.5t-33 -13.5z" />
    <glyph glyph-name="uni0299" unicode="&#x299;" horiz-adv-x="508" 
d="M82 0v486h187q40 0 73 -7t56.5 -21.5t36.5 -38t13 -56.5q0 -41 -21.5 -67t-59.5 -37v-3q21 -5 39.5 -14t32.5 -23t22 -34t8 -46q0 -36 -14.5 -62t-40 -43.5t-60.5 -25.5t-77 -8h-195zM163 282h92q61 0 87 19.5t26 53.5t-25 53t-82 19h-98v-145zM163 59h105q60 0 89.5 22
t29.5 63q0 37 -31 58t-93 21h-100v-164z" />
    <glyph glyph-name="uni029C" unicode="&#x29c;" horiz-adv-x="562" 
d="M83 0v486h82v-197h234v197h82v-486h-82v216h-234v-216h-82z" />
    <glyph glyph-name="uni029D" unicode="&#x29d;" horiz-adv-x="284" 
d="M242 -274q-38 71 -75 119q-20 -29 -51.5 -45.5t-75.5 -16.5q-29 0 -52 9t-39 24t-24.5 35t-8.5 43q0 45 31.5 72.5t89.5 27.5q40 0 83 -23v515h82v-509q0 -34 -6 -64q58 -58 110 -157zM39 -152q30 0 47.5 15.5t25.5 39.5q-40 32 -76 32q-26 0 -39.5 -11.5t-13.5 -28.5
q0 -20 15.5 -33.5t40.5 -13.5zM161 586q-24 0 -40.5 15t-16.5 38q0 24 16.5 38.5t40.5 14.5t40.5 -14.5t16.5 -38.5q0 -23 -16.5 -38t-40.5 -15z" />
    <glyph glyph-name="uni029F" unicode="&#x29f;" horiz-adv-x="411" 
d="M82 0v486h82v-419h221v-67h-303z" />
    <glyph glyph-name="uni02A1" unicode="&#x2a1;" horiz-adv-x="441" 
d="M158 0v257h-151v62l76 5h89q81 51 118.5 100.5t37.5 105.5q0 58 -32.5 92t-92.5 34q-51 0 -86 -22t-60 -51l-44 54q15 16 34.5 32t43.5 28t53 19.5t65 7.5q42 0 79 -12t64.5 -36t43.5 -60t16 -84q0 -64 -38 -115t-96 -93h144v-67h-182v-257h-82z" />
    <glyph glyph-name="uni02A2" unicode="&#x2a2;" horiz-adv-x="441" 
d="M200 0v257h-181v67h144q-58 42 -96 93t-38 115q0 48 16.5 84t45.5 60t67.5 36t83.5 12q33 0 61 -7.5t50.5 -19.5t41 -28t33.5 -32l-44 -54q-23 28 -56 50.5t-80 22.5q-65 0 -100.5 -34t-35.5 -92q0 -56 38 -105.5t119 -100.5h89l76 -5v-62h-152v-257h-82z" />
    <glyph glyph-name="h.sups" unicode="&#x2b0;" horiz-adv-x="366" 
d="M52 395v468h62v-125l-3 -67q20 21 48 37t60 16q56 0 79 -35t23 -91v-203h-62v194q0 38 -11.5 60t-49.5 22q-37 0 -84 -47v-229h-62z" />
    <glyph glyph-name="j.sups" unicode="&#x2b2;" horiz-adv-x="169" 
d="M23 250q-17 0 -27.5 2t-21.5 6l13 49q6 -3 12 -4.5t16 -1.5q23 0 31 15.5t8 44.5v355h62v-351q0 -54 -21 -84.5t-72 -30.5zM86 778q-18 0 -30 11t-12 28t12 28.5t30 11.5t30 -11.5t12 -28.5t-12 -28t-30 -11z" />
    <glyph glyph-name="r.sups" unicode="&#x2b3;" horiz-adv-x="240" 
d="M52 395v321h50l7 -56h3q38 64 91 64q26 0 38 -6l-12 -56q-6 2 -15 3.5t-17 1.5q-21 0 -43 -15.5t-39 -53.5v-203h-63z" />
    <glyph glyph-name="w.sups" unicode="&#x2b7;" horiz-adv-x="487" 
d="M105 395l-89 321h64l44 -179l19 -91h4l22 91l47 179h56l50 -179l22 -91h4l21 91l43 179h59l-87 -321h-75l-43 163l-21 92h-2l-21 -92l-43 -163h-74z" />
    <glyph glyph-name="y.sups" unicode="&#x2b8;" horiz-adv-x="319" 
d="M65 261q-23 0 -41 6l13 50q13 -6 24 -6q26 0 44 18t27 47l7 21l-131 319h63l63 -169q8 -22 15.5 -45t15.5 -48h4q7 24 14 47t15 46l52 169h61l-119 -340q-18 -51 -47 -83t-80 -32z" />
    <glyph glyph-name="uni02B9" unicode="&#x2b9;" horiz-adv-x="249" 
d="M82 450l22 240l81 -1l-15 -91l-34 -149z" />
    <glyph glyph-name="uni02BB" unicode="&#x2bb;" horiz-adv-x="249" 
d="M120 428q-30 0 -46.5 23t-16.5 67q0 60 27 104t79 74l24 -39q-38 -25 -57 -53.5t-19 -70.5q3 1 9 1q20 0 36.5 -13t16.5 -38q0 -26 -15 -40.5t-38 -14.5z" />
    <glyph glyph-name="uni02BC" unicode="&#x2bc;" horiz-adv-x="249" 
d="M86 431l-23 38q38 25 56.5 53.5t18.5 71.5q-3 -1 -8 -1q-21 0 -37 13t-16 37q0 26 15 41t38 15q29 0 46 -23.5t17 -67.5q0 -60 -27.5 -103.5t-79.5 -73.5z" />
    <glyph glyph-name="uni02BE" unicode="&#x2be;" horiz-adv-x="166" 
d="M30 549v35q40 0 56.5 17t16.5 45t-16.5 45t-56.5 17v35q60 2 90.5 -24.5t30.5 -72.5t-30.5 -72.5t-90.5 -24.5z" />
    <glyph glyph-name="uni02BF" unicode="&#x2bf;" horiz-adv-x="166" 
d="M136 549q-60 -2 -90.5 24.5t-30.5 72.5t30.5 72.5t90.5 24.5v-35q-40 0 -56.5 -17t-16.5 -45t16.5 -45t56.5 -17v-35z" />
    <glyph glyph-name="uni02C1" unicode="&#x2c1;" horiz-adv-x="302" 
d="M134 395v187q-50 33 -81 69t-31 92q0 32 11 56t30.5 40.5t46 24.5t56.5 8q45 0 75.5 -18t50.5 -40l-32 -40q-15 19 -36.5 33t-52.5 14q-42 0 -64.5 -21.5t-22.5 -57.5q0 -41 26 -70.5t85 -63.5v-213h-61z" />
    <glyph glyph-name="circumflex" unicode="&#x2c6;" horiz-adv-x="542" 
d="M116 600l114 140h82l114 -140l-35 -32l-118 113h-4l-118 -113z" />
    <glyph glyph-name="caron" unicode="&#x2c7;" horiz-adv-x="542" 
d="M230 574l-114 140l35 32l118 -113h4l118 113l35 -32l-114 -140h-82z" />
    <glyph glyph-name="uni02C8" unicode="&#x2c8;" horiz-adv-x="114" 
d="M28 533l-6 196h70l-6 -196h-58z" />
    <glyph glyph-name="uni02C9" unicode="&#x2c9;" horiz-adv-x="277" 
d="M6 601v57h266v-57h-266z" />
    <glyph glyph-name="uni02CA" unicode="&#x2ca;" horiz-adv-x="225" 
d="M97 573l-42 41l141 167l58 -55z" />
    <glyph glyph-name="uni02CB" unicode="&#x2cb;" horiz-adv-x="225" 
d="M125 573l-157 153l58 55l141 -167z" />
    <glyph glyph-name="uni02CC" unicode="&#x2cc;" horiz-adv-x="114" 
d="M22 -266l6 195h58l6 -195h-70z" />
    <glyph glyph-name="uni02D0" unicode="&#x2d0;" horiz-adv-x="249" 
d="M50 0l69 138h11l69 -138h-149zM119 327l-69 136h149l-69 -136h-11z" />
    <glyph glyph-name="uni02D1" unicode="&#x2d1;" horiz-adv-x="249" 
d="M119 269l-69 136h149l-69 -136h-11z" />
    <glyph glyph-name="breve" unicode="&#x2d8;" horiz-adv-x="542" 
d="M271 571q-40 0 -69 13t-47.5 34.5t-28 48.5t-11.5 55l51 8q3 -19 10.5 -37.5t20.5 -33.5t31.5 -24t42.5 -9t42.5 9t31.5 24t20.5 33.5t10.5 37.5l51 -8q-2 -28 -11.5 -55t-28.5 -48.5t-47.5 -34.5t-68.5 -13z" />
    <glyph glyph-name="dotaccent" unicode="&#x2d9;" horiz-adv-x="542" 
d="M271 586q-23 0 -38.5 15t-15.5 39q0 23 15.5 38.5t38.5 15.5t38.5 -15.5t15.5 -38.5q0 -24 -15.5 -39t-38.5 -15z" />
    <glyph glyph-name="ring" unicode="&#x2da;" horiz-adv-x="542" 
d="M271 554q-51 0 -80.5 28t-29.5 71q0 42 29.5 70t80.5 28t80.5 -28t29.5 -70q0 -43 -29.5 -71t-80.5 -28zM271 591q24 0 40.5 16.5t16.5 45.5q0 28 -16.5 44.5t-40.5 16.5t-40.5 -16.5t-16.5 -44.5q0 -29 16.5 -45.5t40.5 -16.5z" />
    <glyph glyph-name="ogonek" unicode="&#x2db;" horiz-adv-x="542" 
d="M295 -206q-38 0 -64 21.5t-26 63.5q0 41 23 73t48 51h58q-32 -24 -50 -51.5t-18 -56.5q0 -23 14 -34.5t32 -11.5q22 0 40 13l22 -41q-14 -11 -37 -19t-42 -8z" />
    <glyph glyph-name="tilde" unicode="&#x2dc;" horiz-adv-x="542" 
d="M343 577q-27 0 -46 13t-35 29t-30.5 29t-31.5 13q-23 0 -34 -22t-13 -57l-55 3q1 29 7.5 54t18.5 43t30.5 28.5t44.5 10.5q27 0 46 -13t35 -29t30.5 -29t32.5 -13q22 0 33 22t13 57l55 -4q-1 -29 -7.5 -53.5t-18.5 -42.5t-30.5 -28.5t-44.5 -10.5z" />
    <glyph glyph-name="hungarumlaut" unicode="&#x2dd;" horiz-adv-x="542" 
d="M220 568l-45 21l86 172l59 -28zM371 568l-46 21l87 172l58 -28z" />
    <glyph glyph-name="uni02DE" unicode="&#x2de;" horiz-adv-x="151" 
d="M104 230q-32 0 -56.5 21t-38.5 75l-106 -43v63l146 60q5 -38 11.5 -62.5t14 -38t16.5 -18.5t19 -5q13 0 22 4.5t17 10.5l22 -43q-12 -9 -28.5 -16.5t-38.5 -7.5z" />
    <glyph glyph-name="uni02E0" unicode="&#x2e0;" horiz-adv-x="318" 
d="M160 248q-37 0 -57.5 22t-20.5 57q0 23 10.5 47t27.5 59l-112 283h63l59 -166q7 -22 14.5 -40.5t14.5 -40.5h3q7 22 14.5 40.5t15.5 40.5l58 166h60l-110 -284q18 -35 28.5 -58.5t10.5 -46.5q0 -35 -20.5 -57t-58.5 -22zM160 289q14 0 20.5 9.5t6.5 24.5q0 32 -25 80h-3
q-11 -23 -17.5 -43.5t-6.5 -36.5q0 -15 6 -24.5t19 -9.5z" />
    <glyph glyph-name="l.sups" unicode="&#x2e1;" horiz-adv-x="174" 
d="M117 387q-36 0 -50.5 21.5t-14.5 59.5v395h62v-400q0 -14 4 -19.5t12 -5.5h6t8 2l9 -47q-7 -3 -15 -4.5t-21 -1.5z" />
    <glyph glyph-name="s.sups" unicode="&#x2e2;" horiz-adv-x="283" 
d="M144 387q-36 0 -68.5 12.5t-56.5 31.5l30 41q22 -17 45.5 -27t50.5 -10q28 0 43 13t15 32q0 23 -22.5 34.5t-50.5 22.5q-17 6 -34 14t-30.5 19t-22 26t-8.5 36q0 38 29 65t82 27q35 0 61 -11t46 -25l-31 -40q-18 14 -34.5 21t-39.5 7q-27 0 -40.5 -12.5t-13.5 -27.5
q0 -11 6 -19t16 -14t23 -11t27 -11q17 -6 34.5 -13.5t31.5 -18t22.5 -26t8.5 -37.5q0 -44 -32 -71.5t-87 -27.5z" />
    <glyph glyph-name="x.sups" unicode="&#x2e3;" horiz-adv-x="307" 
d="M8 395l108 168l-99 153h68l41 -66l31 -51h4l27 51l37 66h66l-98 -160l105 -161h-68l-43 69l-35 55h-4l-33 -55l-41 -69h-66z" />
    <glyph glyph-name="uni0300" unicode="&#x300;" 
d="M14 573l-157 153l58 55l141 -167z" />
    <glyph glyph-name="uni0301" unicode="&#x301;" 
d="M-14 573l-42 41l141 167l58 -55z" />
    <glyph glyph-name="uni0302" unicode="&#x302;" 
d="M-155 600l114 140h82l114 -140l-35 -32l-118 113h-4l-118 -113z" />
    <glyph glyph-name="uni0303" unicode="&#x303;" 
d="M72 577q-27 0 -46 13t-35 29t-30.5 29t-31.5 13q-23 0 -34 -22t-13 -57l-55 3q1 29 7.5 54t18.5 43t30.5 28.5t44.5 10.5q27 0 46 -13t35 -29t30.5 -29t32.5 -13q22 0 33 22t13 57l55 -4q-1 -29 -7.5 -53.5t-18.5 -42.5t-30.5 -28.5t-44.5 -10.5z" />
    <glyph glyph-name="uni0304" unicode="&#x304;" 
d="M-133 601v57h266v-57h-266z" />
    <glyph glyph-name="uni0305" unicode="&#x305;" 
d="M-133 601v57h266v-57h-266z" />
    <glyph glyph-name="uni0306" unicode="&#x306;" 
d="M0 571q-40 0 -69 13t-47.5 34.5t-28 48.5t-11.5 55l51 8q3 -19 10.5 -37.5t20.5 -33.5t31.5 -24t42.5 -9t42.5 9t31.5 24t20.5 33.5t10.5 37.5l51 -8q-2 -28 -11.5 -55t-28.5 -48.5t-47.5 -34.5t-68.5 -13z" />
    <glyph glyph-name="uni0307" unicode="&#x307;" 
d="M0 586q-23 0 -38.5 15t-15.5 39q0 23 15.5 38.5t38.5 15.5t38.5 -15.5t15.5 -38.5q0 -24 -15.5 -39t-38.5 -15z" />
    <glyph glyph-name="uni0308" unicode="&#x308;" 
d="M-96 587q-22 0 -36 14.5t-14 35.5t14 35.5t36 14.5q21 0 35 -14.5t14 -35.5t-14 -35.5t-35 -14.5zM96 587q-21 0 -35 14.5t-14 35.5t14 35.5t35 14.5q22 0 36 -14.5t14 -35.5t-14 -35.5t-36 -14.5z" />
    <glyph glyph-name="uni0309" unicode="&#x309;" 
d="M-32 572l-9 40q24 6 40 16.5t16 30.5q0 43 -83 47l5 54q69 -2 106 -25.5t37 -68.5q0 -22 -9.5 -37.5t-25 -27t-35.5 -18.5t-42 -11z" />
    <glyph glyph-name="uni030A" unicode="&#x30a;" 
d="M0 554q-51 0 -80.5 28t-29.5 71q0 42 29.5 70t80.5 28t80.5 -28t29.5 -70q0 -43 -29.5 -71t-80.5 -28zM0 591q24 0 40.5 16.5t16.5 45.5q0 28 -16.5 44.5t-40.5 16.5t-40.5 -16.5t-16.5 -44.5q0 -29 16.5 -45.5t40.5 -16.5z" />
    <glyph glyph-name="uni030B" unicode="&#x30b;" 
d="M-51 568l-45 21l86 172l59 -28zM100 568l-46 21l87 172l58 -28z" />
    <glyph glyph-name="uni030C" unicode="&#x30c;" 
d="M-41 574l-114 140l35 32l118 -113h4l118 113l35 -32l-114 -140h-82z" />
    <glyph glyph-name="uni030F" unicode="&#x30f;" 
d="M-100 568l-99 165l58 28l87 -172zM51 568l-100 165l59 28l86 -172z" />
    <glyph glyph-name="uni0311" unicode="&#x311;" 
d="M-105 568l-51 8q2 28 11.5 55t28 48.5t47.5 34.5t69 13t68.5 -13t47.5 -34.5t28.5 -48.5t11.5 -55l-51 -8q-3 19 -10.5 37.5t-20.5 33.5t-31.5 24t-42.5 9t-42.5 -9t-31.5 -24t-20.5 -33.5t-10.5 -37.5z" />
    <glyph glyph-name="uni0312" unicode="&#x312;" 
d="M-2 564q-51 0 -51 69q0 35 19 66t62 51l18 -32q-29 -14 -42 -31t-15 -40q3 1 8 1q15 0 28 -10t13 -30q0 -22 -11.5 -33t-28.5 -11z" />
    <glyph glyph-name="uni0313" unicode="&#x313;" 
d="M-30 562l-17 32q54 28 57 72q-3 -1 -9 -1q-15 0 -28 9.5t-13 29.5q0 23 12 34t29 11q50 0 50 -69q0 -35 -19 -66.5t-62 -51.5z" />
    <glyph glyph-name="uni0318" unicode="&#x318;" 
d="M85 -249h-50v72h-111v47h111v72h50v-191z" />
    <glyph glyph-name="uni0319" unicode="&#x319;" 
d="M76 -177h-111v-72h-50v191h50v-72h111v-47z" />
    <glyph glyph-name="uni031A" unicode="&#x31a;" 
d="M85 573h-50v94h-111v47h161v-141z" />
    <glyph glyph-name="uni031B" unicode="&#x31b;" 
d="M-1 434l-8 41q84 13 84 82q0 16 -4 29t-10 27l64 30q10 -18 16.5 -37t6.5 -43q0 -30 -11.5 -52.5t-31.5 -38t-47.5 -25t-58.5 -13.5z" />
    <glyph glyph-name="uni031C" unicode="&#x31c;" 
d="M55 -258q-60 -2 -90.5 24.5t-30.5 72.5t30.5 72.5t90.5 24.5v-35q-40 0 -56.5 -17t-16.5 -45t16.5 -45t56.5 -17v-35z" />
    <glyph glyph-name="uni031D" unicode="&#x31d;" 
d="M96 -211h-192v47h71v106h50v-106h71v-47z" />
    <glyph glyph-name="uni031E" unicode="&#x31e;" 
d="M96 -143h-71v-106h-50v106h-71v47h192v-47z" />
    <glyph glyph-name="uni031F" unicode="&#x31f;" 
d="M96 -177h-71v-72h-50v72h-71v47h71v72h50v-72h71v-47z" />
    <glyph glyph-name="uni0320" unicode="&#x320;" 
d="M-96 -177v47h192v-47h-192z" />
    <glyph glyph-name="uni0323" unicode="&#x323;" 
d="M0 -205q-23 0 -38.5 15t-15.5 39q0 23 15.5 38.5t38.5 15.5t38.5 -15.5t15.5 -38.5q0 -24 -15.5 -39t-38.5 -15z" />
    <glyph glyph-name="uni0324" unicode="&#x324;" 
d="M-96 -201q-22 0 -36 14.5t-14 35.5t14 35.5t36 14.5q21 0 35 -14.5t14 -35.5t-14 -35.5t-35 -14.5zM96 -201q-21 0 -35 14.5t-14 35.5t14 35.5t35 14.5q22 0 36 -14.5t14 -35.5t-14 -35.5t-36 -14.5z" />
    <glyph glyph-name="uni0325" unicode="&#x325;" 
d="M0 -252q-51 0 -80.5 28t-29.5 71q0 42 29.5 70t80.5 28t80.5 -28t29.5 -70q0 -43 -29.5 -71t-80.5 -28zM0 -215q24 0 40.5 16.5t16.5 45.5q0 28 -16.5 44.5t-40.5 16.5t-40.5 -16.5t-16.5 -44.5q0 -29 16.5 -45.5t40.5 -16.5z" />
    <glyph glyph-name="uni0326" unicode="&#x326;" 
d="M-87 -226l-8 40q63 5 86 16.5t23 31.5t-18 29.5t-53 12.5l18 38q65 -8 91 -25.5t26 -51.5q0 -44 -42.5 -65.5t-122.5 -25.5z" />
    <glyph glyph-name="uni0327" unicode="&#x327;" 
d="M-87 -226l-8 40q63 5 86 16.5t23 33.5q0 20 -17 31t-60 17l44 91h53l-29 -67q35 -8 54 -24t19 -47q0 -44 -42.5 -65.5t-122.5 -25.5z" />
    <glyph glyph-name="uni0328" unicode="&#x328;" 
d="M24 -206q-38 0 -64 21.5t-26 63.5q0 41 23 73t48 51h58q-32 -24 -50 -51.5t-18 -56.5q0 -23 14 -34.5t32 -11.5q22 0 40 13l22 -41q-14 -11 -37 -19t-42 -8z" />
    <glyph glyph-name="uni0329" unicode="&#x329;" 
d="M-35 -266l6 195h58l6 -195h-70z" />
    <glyph glyph-name="uni032A" unicode="&#x32a;" 
d="M75 -226v97h-150v-97h-46v144h242v-144h-46z" />
    <glyph glyph-name="uni032C" unicode="&#x32c;" 
d="M-41 -223l-114 140l35 32l118 -113h4l118 113l35 -32l-114 -140h-82z" />
    <glyph glyph-name="uni032E" unicode="&#x32e;" 
d="M0 -230q-40 0 -69 13t-47.5 34.5t-28 48.5t-11.5 55l51 8q3 -19 10.5 -37.5t20.5 -33.5t31.5 -24t42.5 -9t42.5 9t31.5 24t20.5 33.5t10.5 37.5l51 -8q-2 -28 -11.5 -55t-28.5 -48.5t-47.5 -34.5t-68.5 -13z" />
    <glyph glyph-name="uni032F" unicode="&#x32f;" 
d="M-105 -236l-51 8q2 28 11.5 55t28 48.5t47.5 34.5t69 13t68.5 -13t47.5 -34.5t28.5 -48.5t11.5 -55l-51 -8q-3 19 -10.5 37.5t-20.5 33.5t-31.5 24t-42.5 9t-42.5 -9t-31.5 -24t-20.5 -33.5t-10.5 -37.5z" />
    <glyph glyph-name="uni0330" unicode="&#x330;" 
d="M72 -222q-27 0 -46 13t-35 29t-30.5 29t-31.5 13q-23 0 -34 -22t-13 -57l-55 3q1 29 7.5 54t18.5 43t30.5 28.5t44.5 10.5q27 0 46 -13t35 -29t30.5 -29t32.5 -13q22 0 33 22t13 57l55 -4q-1 -29 -7.5 -53.5t-18.5 -42.5t-30.5 -28.5t-44.5 -10.5z" />
    <glyph glyph-name="uni0331" unicode="&#x331;" 
d="M-133 -169v57h266v-57h-266z" />
    <glyph glyph-name="uni0334" unicode="&#x334;" 
d="M72 189q-27 0 -46 13t-35 29t-30.5 29t-31.5 13q-23 0 -34 -22t-13 -57l-55 3q1 29 7.5 54t18.5 43t30.5 28.5t44.5 10.5q27 0 46 -13t35 -29t30.5 -29t32.5 -13q22 0 33 22t13 57l55 -4q-1 -29 -7.5 -53.5t-18.5 -42.5t-30.5 -28.5t-44.5 -10.5z" />
    <glyph glyph-name="uni0339" unicode="&#x339;" 
d="M-55 -258v35q40 0 56.5 17t16.5 45t-16.5 45t-56.5 17v35q60 2 90.5 -24.5t30.5 -72.5t-30.5 -72.5t-90.5 -24.5z" />
    <glyph glyph-name="uni033A" unicode="&#x33a;" 
d="M-121 -225v143h46v-96h150v96h46v-143h-242z" />
    <glyph glyph-name="uni033B" unicode="&#x33b;" 
d="M-121 -240v163h242v-163h-242zM-75 -200h150v84h-150v-84z" />
    <glyph glyph-name="uni033C" unicode="&#x33c;" 
d="M-168 -228q0 78 24 113t70 35q26 0 45.5 -13t27.5 -45h2q8 32 27.5 45t45.5 13q46 0 70 -35t24 -113l-48 -6q0 60 -13.5 80t-36.5 20t-34.5 -21t-11.5 -59v-19h-48v19q0 38 -11.5 59t-35.5 21q-23 0 -36 -20t-13 -80z" />
    <glyph glyph-name="uni033D" unicode="&#x33d;" 
d="M-51 555l-33 33l51 51l-51 51l33 34l51 -51l51 51l33 -34l-51 -51l51 -51l-33 -33l-51 51z" />
    <glyph glyph-name="uni0342" unicode="&#x342;" 
d="M72 577q-27 0 -46 13t-35 29t-30.5 29t-31.5 13q-23 0 -34 -22t-13 -57l-55 3q1 29 7.5 54t18.5 43t30.5 28.5t44.5 10.5q27 0 46 -13t35 -29t30.5 -29t32.5 -13q22 0 33 22t13 57l55 -4q-1 -29 -7.5 -53.5t-18.5 -42.5t-30.5 -28.5t-44.5 -10.5z" />
    <glyph glyph-name="uni0345" unicode="&#x345;" 
d="M44 -201q-40 0 -58.5 24t-18.5 69v46h64q-2 -13 -2 -27.5v-25.5q0 -17 9 -24t21 -7q4 0 8 0.5t14 2.5l9 -49q-10 -4 -19.5 -6.5t-26.5 -2.5z" />
    <glyph glyph-name="uni0361" unicode="&#x361;" 
d="M-430 550l-24 42q101 62 213.5 94.5t240.5 32.5t240.5 -32.5t213.5 -94.5l-24 -42q-96 58 -208.5 84.5t-221.5 26.5t-221.5 -26.5t-208.5 -84.5z" />
    <glyph glyph-name="uni0374" unicode="&#x374;" horiz-adv-x="249" 
d="M82 449l22 241h81l-15 -92l-34 -149h-54z" />
    <glyph glyph-name="uni0375" unicode="&#x375;" horiz-adv-x="249" 
d="M64 0l15 92l34 150h54l-22 -242h-81z" />
    <glyph glyph-name="uni037A" unicode="&#x37a;" horiz-adv-x="542" 
d="M321 -201q-40 0 -58.5 24t-18.5 69v46h64q-2 -13 -2 -27.5v-25.5q0 -17 9 -24t21 -7q4 0 8 0.5t14 2.5l9 -49q-10 -4 -19.5 -6.5t-26.5 -2.5z" />
    <glyph glyph-name="uni037E" unicode="&#x37e;" horiz-adv-x="249" 
d="M125 349q-25 0 -42.5 17.5t-17.5 44.5q0 29 17.5 46.5t42.5 17.5q24 0 41.5 -17.5t17.5 -46.5q0 -27 -17.5 -44.5t-41.5 -17.5zM67 -170l-20 48q43 19 67 50.5t23 71.5q-3 -1 -10 -1q-24 0 -41.5 14.5t-17.5 42.5q0 27 18 42.5t43 15.5q32 0 50.5 -26t18.5 -71
q0 -65 -35 -113t-96 -74z" />
    <glyph glyph-name="tonos" unicode="&#x384;" horiz-adv-x="542" 
d="M238 569l43 201l85 -15l-71 -197z" />
    <glyph glyph-name="dieresistonos" unicode="&#x385;" horiz-adv-x="542" 
d="M237 573l45 201l66 -14l-68 -197zM164 595q-18 0 -30 11.5t-12 30.5t12 30.5t30 11.5q17 0 29 -11.5t12 -30.5t-12 -30.5t-29 -11.5zM390 595q-17 0 -29 11.5t-12 30.5t12 30.5t29 11.5q18 0 30 -11.5t12 -30.5t-12 -30.5t-30 -11.5z" />
    <glyph glyph-name="Alphatonos" unicode="&#x386;" horiz-adv-x="566" 
d="M225 367l-31 -100h197l-31 100q-18 55 -34 109.5t-32 111.5h-4q-15 -57 -31 -111.5t-34 -109.5zM25 0l222 656h94l222 -656h-89l-62 200h-239l-63 -200h-85zM6 475l29 195l76 -11l-50 -195z" />
    <glyph glyph-name="anoteleia" unicode="&#x387;" horiz-adv-x="249" 
d="M125 349q-25 0 -42.5 17.5t-17.5 44.5q0 29 17.5 46.5t42.5 17.5q24 0 41.5 -17.5t17.5 -46.5q0 -27 -17.5 -44.5t-41.5 -17.5z" />
    <glyph glyph-name="Epsilontonos" unicode="&#x388;" horiz-adv-x="591" 
d="M154 0v656h378v-70h-295v-206h249v-71h-249v-238h305v-71h-388zM-19 475l29 195l76 -11l-50 -195z" />
    <glyph glyph-name="Etatonos" unicode="&#x389;" horiz-adv-x="716" 
d="M154 0v656h83v-275h305v275h84v-656h-84v309h-305v-309h-83zM-19 475l29 195l76 -11l-50 -195z" />
    <glyph glyph-name="Iotatonos" unicode="&#x38a;" horiz-adv-x="327" 
d="M154 0v656h83v-656h-83zM-19 475l29 195l76 -11l-50 -195z" />
    <glyph glyph-name="Omicrontonos" unicode="&#x38c;" horiz-adv-x="711" 
d="M379 -12q-62 0 -113.5 24t-88.5 68.5t-57.5 108t-20.5 142.5t20.5 141.5t57.5 106t88.5 66.5t113.5 23t113.5 -23.5t89 -67t58 -106t20.5 -140.5q0 -79 -20.5 -142.5t-58 -108t-89 -68.5t-113.5 -24zM379 61q44 0 79.5 19t61 54.5t39.5 85t14 111.5q0 61 -14 110
t-39.5 83t-61 52.5t-79.5 18.5t-79.5 -18.5t-61 -52.5t-39.5 -83t-14 -110q0 -62 14 -111.5t39.5 -85t61 -54.5t79.5 -19zM-19 475l29 195l76 -11l-50 -195z" />
    <glyph glyph-name="Upsilontonos" unicode="&#x38e;" horiz-adv-x="600" 
d="M320 0v254l-197 402h89l85 -185q16 -36 31 -71t32 -72h4q17 37 34 72t32 71l84 185h87l-197 -402v-254h-84zM-19 475l29 195l76 -11l-50 -195z" />
    <glyph glyph-name="Omegatonos" unicode="&#x38f;" horiz-adv-x="723" 
d="M92 0v68h131v4q-21 21 -42 48.5t-37.5 62.5t-27 76.5t-10.5 91.5q0 69 20 127t56.5 100.5t88 66t115.5 23.5t115.5 -23.5t88.5 -66t57 -100.5t20 -127q0 -50 -10.5 -91.5t-27 -76.5t-38 -62.5t-42.5 -48.5v-4h131v-68h-233v61q28 22 52.5 50t42.5 63t28.5 77.5t10.5 94.5
q0 53 -13.5 98.5t-38.5 79t-61 52.5t-82 19t-82 -19t-61 -52.5t-38 -79t-13 -98.5q0 -52 10 -94.5t28 -77.5t42.5 -63t52.5 -50v-61h-233zM-22 475l29 195l76 -11l-50 -195z" />
    <glyph glyph-name="iotadieresistonos" unicode="&#x390;" horiz-adv-x="262" 
d="M175 -12q-51 0 -72 29.5t-21 83.5v385h83q-2 -99 -4 -201t-2 -190q0 -39 34 -39q12 0 30 6l11 -62q-11 -5 -25 -8.5t-34 -3.5zM84 573l45 201l66 -14l-68 -197zM11 595q-18 0 -30 11.5t-12 30.5t12 30.5t30 11.5q17 0 29 -11.5t12 -30.5t-12 -30.5t-29 -11.5zM237 595
q-17 0 -29 11.5t-12 30.5t12 30.5t29 11.5q18 0 30 -11.5t12 -30.5t-12 -30.5t-30 -11.5z" />
    <glyph glyph-name="Alpha" unicode="&#x391;" horiz-adv-x="544" 
d="M203 367l-31 -100h197l-31 100q-18 55 -34 109.5t-32 111.5h-4q-15 -57 -31 -111.5t-34 -109.5zM3 0l222 656h94l222 -656h-89l-62 200h-239l-63 -200h-85z" />
    <glyph glyph-name="Beta" unicode="&#x392;" horiz-adv-x="588" 
d="M90 0v656h195q50 0 91.5 -9t71 -28t46 -49.5t16.5 -73.5q0 -49 -24.5 -88.5t-71.5 -54.5v-4q60 -11 97 -50t37 -107q0 -48 -18 -84t-51 -60t-79 -36t-101 -12h-209zM173 377h97q84 0 121 29t37 79q0 57 -38.5 81t-115.5 24h-101v-213zM173 66h114q85 0 132 31.5t47 97.5
q0 61 -46 89.5t-133 28.5h-114v-247z" />
    <glyph glyph-name="Gamma" unicode="&#x393;" horiz-adv-x="498" 
d="M90 0v656h378v-70h-295v-586h-83z" />
    <glyph glyph-name="uni0394" unicode="&#x394;" horiz-adv-x="588" 
d="M30 0v50l216 606h96l216 -606v-50h-528zM120 71h346l-102 300l-69 210h-4l-69 -210z" />
    <glyph glyph-name="Epsilon" unicode="&#x395;" horiz-adv-x="527" 
d="M90 0v656h378v-70h-295v-206h249v-71h-249v-238h305v-71h-388z" />
    <glyph glyph-name="Zeta" unicode="&#x396;" horiz-adv-x="539" 
d="M45 0v50l345 536h-314v70h418v-49l-346 -536h349v-71h-452z" />
    <glyph glyph-name="Eta" unicode="&#x397;" horiz-adv-x="652" 
d="M90 0v656h83v-275h305v275h84v-656h-84v309h-305v-309h-83z" />
    <glyph glyph-name="Theta" unicode="&#x398;" horiz-adv-x="664" 
d="M220 309v72h224v-72h-224zM332 -12q-62 0 -113.5 24t-88.5 68.5t-57.5 108t-20.5 142.5t20.5 141.5t57.5 106t88.5 66.5t113.5 23t113.5 -23.5t89 -67t58 -106t20.5 -140.5q0 -79 -20.5 -142.5t-58 -108t-89 -68.5t-113.5 -24zM332 61q44 0 79.5 19t61 54.5t39.5 85
t14 111.5q0 61 -14 110t-39.5 83t-61 52.5t-79.5 18.5t-79.5 -18.5t-61 -52.5t-39.5 -83t-14 -110q0 -62 14 -111.5t39.5 -85t61 -54.5t79.5 -19z" />
    <glyph glyph-name="Iota" unicode="&#x399;" horiz-adv-x="263" 
d="M90 0v656h83v-656h-83z" />
    <glyph glyph-name="Kappa" unicode="&#x39a;" horiz-adv-x="579" 
d="M90 0v656h83v-329h3l273 329h94l-205 -250l237 -406h-93l-196 341l-113 -133v-208h-83z" />
    <glyph glyph-name="Lambda" unicode="&#x39b;" horiz-adv-x="515" 
d="M0 0l209 656h96l210 -656h-88l-106 355q-17 58 -31 108.5t-33 108.5h-4q-18 -58 -32 -108.5t-31 -108.5l-105 -355h-85z" />
    <glyph glyph-name="Mu" unicode="&#x39c;" horiz-adv-x="727" 
d="M90 0v656h100l126 -350q12 -34 23.5 -68.5t23.5 -68.5h4q12 34 22.5 68.5t22.5 68.5l124 350h101v-656h-78v361q0 44 4 97t7 97h-4l-52 -149l-124 -340h-55l-124 340l-52 149h-4q3 -44 6.5 -97t3.5 -97v-361h-75z" />
    <glyph glyph-name="Nu" unicode="&#x39d;" horiz-adv-x="647" 
d="M90 0v656h86l237 -412l71 -136h4q-3 50 -6.5 103.5t-3.5 105.5v339h79v-656h-86l-238 413l-71 135h-4q4 -50 7.5 -101.5t3.5 -103.5v-343h-79z" />
    <glyph glyph-name="Xi" unicode="&#x39e;" horiz-adv-x="533" 
d="M49 0v71h435v-71h-435zM124 309v71h285v-71h-285zM59 586v70h415v-70h-415z" />
    <glyph glyph-name="Omicron" unicode="&#x39f;" horiz-adv-x="664" 
d="M332 -12q-62 0 -113.5 24t-88.5 68.5t-57.5 108t-20.5 142.5t20.5 141.5t57.5 106t88.5 66.5t113.5 23t113.5 -23.5t89 -67t58 -106t20.5 -140.5q0 -79 -20.5 -142.5t-58 -108t-89 -68.5t-113.5 -24zM332 61q44 0 79.5 19t61 54.5t39.5 85t14 111.5q0 61 -14 110
t-39.5 83t-61 52.5t-79.5 18.5t-79.5 -18.5t-61 -52.5t-39.5 -83t-14 -110q0 -62 14 -111.5t39.5 -85t61 -54.5t79.5 -19z" />
    <glyph glyph-name="Pi" unicode="&#x3a0;" horiz-adv-x="645" 
d="M90 0v656h465v-656h-83v586h-299v-586h-83z" />
    <glyph glyph-name="Rho" unicode="&#x3a1;" horiz-adv-x="566" 
d="M90 0v656h187q55 0 100.5 -10t77.5 -32.5t50 -59.5t18 -91q0 -52 -17.5 -90t-49.5 -63t-76.5 -37.5t-98.5 -12.5h-108v-260h-83zM173 328h98q86 0 127.5 32.5t41.5 102.5q0 71 -43.5 98.5t-129.5 27.5h-94v-261z" />
    <glyph glyph-name="Sigma" unicode="&#x3a3;" horiz-adv-x="538" 
d="M44 0v50l226 283l-222 274v49h423v-70h-318l201 -251l-204 -264h351v-71h-457z" />
    <glyph glyph-name="Tau" unicode="&#x3a4;" horiz-adv-x="536" 
d="M226 0v586h-198v70h480v-70h-198v-586h-84z" />
    <glyph glyph-name="Upsilon" unicode="&#x3a5;" horiz-adv-x="476" 
d="M196 0v254l-197 402h89l85 -185q16 -36 31 -71t32 -72h4q17 37 34 72t32 71l84 185h87l-197 -402v-254h-84z" />
    <glyph glyph-name="Phi" unicode="&#x3a6;" horiz-adv-x="719" 
d="M590 331q0 84 -52 134.5t-141 55.5v-385q44 3 80 18t61 40.5t38.5 60t13.5 76.5zM129 331q0 -42 13.5 -76.5t38.5 -60t61 -40.5t80 -18v385q-89 -5 -141 -55.5t-52 -134.5zM322 -22v93q-62 3 -112.5 22t-86.5 52.5t-55.5 80t-19.5 105.5q0 58 19.5 104t55.5 78.5t86.5 51
t112.5 21.5v92h75v-92q62 -3 112.5 -21.5t86.5 -51t55.5 -78.5t19.5 -104q0 -59 -19.5 -105.5t-55.5 -80t-86.5 -52.5t-112.5 -22v-93h-75z" />
    <glyph glyph-name="Chi" unicode="&#x3a7;" horiz-adv-x="513" 
d="M15 0l191 339l-178 317h92l89 -168q13 -23 24.5 -44.5t26.5 -50.5h4q14 29 24.5 50.5t22.5 44.5l87 168h88l-179 -321l191 -335h-92l-96 177q-13 24 -26.5 49.5t-29.5 55.5h-4q-14 -30 -27 -55.5t-25 -49.5l-95 -177h-88z" />
    <glyph glyph-name="Psi" unicode="&#x3a8;" horiz-adv-x="699" 
d="M310 0v245q-116 5 -181.5 64.5t-65.5 185.5v161h82v-157q0 -95 41.5 -139t123.5 -48v344h79v-344q82 5 123 48.5t41 138.5v157h83v-161q0 -63 -17 -109t-49 -76.5t-77.5 -46t-103.5 -18.5v-245h-79z" />
    <glyph glyph-name="uni03A9" unicode="&#x3a9;" horiz-adv-x="678" 
d="M45 0v68h131v4q-21 21 -42 48.5t-37.5 62.5t-27 76.5t-10.5 91.5q0 69 20 127t56.5 100.5t88 66t115.5 23.5t115.5 -23.5t88.5 -66t57 -100.5t20 -127q0 -50 -10.5 -91.5t-27 -76.5t-38 -62.5t-42.5 -48.5v-4h131v-68h-233v61q28 22 52.5 50t42.5 63t28.5 77.5t10.5 94.5
q0 53 -13.5 98.5t-38.5 79t-61 52.5t-82 19t-82 -19t-61 -52.5t-38 -79t-13 -98.5q0 -52 10 -94.5t28 -77.5t42.5 -63t52.5 -50v-61h-233z" />
    <glyph glyph-name="Iotadieresis" unicode="&#x3aa;" horiz-adv-x="263" 
d="M90 0v656h83v-656h-83zM28 715q-21 0 -35 14t-14 35q0 22 14 35.5t35 13.5q22 0 35.5 -13.5t13.5 -35.5q0 -21 -13.5 -35t-35.5 -14zM234 715q-22 0 -35.5 14t-13.5 35q0 22 13.5 35.5t35.5 13.5q21 0 35 -13.5t14 -35.5q0 -21 -14 -35t-35 -14z" />
    <glyph glyph-name="Upsilondieresis" unicode="&#x3ab;" horiz-adv-x="476" 
d="M196 0v254l-197 402h89l85 -185q16 -36 31 -71t32 -72h4q17 37 34 72t32 71l84 185h87l-197 -402v-254h-84zM135 715q-21 0 -35 14t-14 35q0 22 14 35.5t35 13.5q22 0 35.5 -13.5t13.5 -35.5q0 -21 -13.5 -35t-35.5 -14zM341 715q-22 0 -35.5 14t-13.5 35q0 22 13.5 35.5
t35.5 13.5q21 0 35 -13.5t14 -35.5q0 -21 -14 -35t-35 -14z" />
    <glyph glyph-name="alphatonos" unicode="&#x3ac;" horiz-adv-x="560" 
d="M233 -12q-42 0 -76 16t-59 47.5t-38.5 77t-13.5 105.5q0 63 17.5 112t47 82.5t68 51.5t80.5 18q45 0 87 -29t63 -98h2l21 115h81q-10 -48 -20.5 -100.5t-19.5 -103.5t-15 -96.5t-6 -78.5q0 -25 14 -38t34 -13q8 0 17 2.5t17 5.5l12 -63q-11 -5 -26 -9t-37 -4
q-44 0 -70 24t-26 75h-3q-56 -99 -151 -99zM250 57q24 0 47 12t41 32.5t30 48t14 58.5l8 91q-10 40 -24 65t-30 39.5t-33.5 20t-34.5 5.5q-26 0 -51 -12.5t-44 -36.5t-30.5 -60.5t-11.5 -84.5q0 -85 31 -131.5t88 -46.5zM251 569l43 201l85 -15l-71 -197z" />
    <glyph glyph-name="epsilontonos" unicode="&#x3ad;" horiz-adv-x="448" 
d="M251 -12q-45 0 -82.5 10t-65 29t-42.5 46t-15 61q0 53 29.5 81.5t71.5 39.5v4q-38 14 -57.5 44t-19.5 64q0 33 15 58t40.5 41t59 24t71.5 8q44 0 83.5 -14t73.5 -39l-33 -55q-29 21 -58.5 32t-63.5 11q-45 0 -75.5 -19t-30.5 -57q0 -33 26 -54t85 -21q14 0 28 0.5t33 2.5
v-64q-22 2 -40 2h-36q-120 0 -120 -82q0 -41 34.5 -64t97.5 -23q35 0 66.5 11t66.5 38l35 -55q-44 -34 -85 -47t-92 -13zM214 569l43 201l85 -15l-71 -197z" />
    <glyph glyph-name="etatonos" unicode="&#x3ae;" horiz-adv-x="541" 
d="M382 -179q3 120 4.5 245t1.5 231q0 69 -18 99.5t-61 30.5q-20 0 -37.5 -5.5t-34.5 -18.5t-34.5 -33.5t-38.5 -51.5v-318h-82v353q0 29 -1 62t-6 71h75l7 -101h3q38 57 78.5 85t94.5 28q71 0 101.5 -48t30.5 -142v-487h-83zM257 569l43 201l85 -15l-71 -197z" />
    <glyph glyph-name="iotatonos" unicode="&#x3af;" horiz-adv-x="262" 
d="M175 -12q-51 0 -72 29.5t-21 83.5v385h83q-2 -99 -4 -201t-2 -190q0 -39 34 -39q12 0 30 6l11 -62q-11 -5 -25 -8.5t-34 -3.5zM91 569l43 201l85 -15l-71 -197z" />
    <glyph glyph-name="upsilondieresistonos" unicode="&#x3b0;" horiz-adv-x="510" 
d="M249 -12q-88 0 -136.5 47.5t-48.5 144.5q0 44 2 86.5t2 86.5q0 29 -1.5 62t-6.5 71h80q5 -26 6.5 -53.5t1.5 -59.5q0 -21 -1 -45.5t-2 -51t-2 -52.5t-1 -48q0 -33 8.5 -55.5t23.5 -37t34.5 -21t41.5 -6.5q53 0 87.5 44.5t34.5 139.5q0 56 -8.5 114t-31.5 125l80 19
q21 -63 32 -126.5t11 -128.5q0 -62 -15 -109.5t-42 -80t-65 -49t-84 -16.5zM204 573l45 201l66 -14l-68 -197zM131 595q-18 0 -30 11.5t-12 30.5t12 30.5t30 11.5q17 0 29 -11.5t12 -30.5t-12 -30.5t-29 -11.5zM357 595q-17 0 -29 11.5t-12 30.5t12 30.5t29 11.5
q18 0 30 -11.5t12 -30.5t-12 -30.5t-30 -11.5z" />
    <glyph glyph-name="alpha" unicode="&#x3b1;" horiz-adv-x="560" 
d="M233 -12q-42 0 -76 16t-59 47.5t-38.5 77t-13.5 105.5q0 63 17.5 112t47 82.5t68 51.5t80.5 18q45 0 87 -29t63 -98h2l21 115h81q-10 -48 -20.5 -100.5t-19.5 -103.5t-15 -96.5t-6 -78.5q0 -25 14 -38t34 -13q8 0 17 2.5t17 5.5l12 -63q-11 -5 -26 -9t-37 -4
q-44 0 -70 24t-26 75h-3q-56 -99 -151 -99zM250 57q24 0 47 12t41 32.5t30 48t14 58.5l8 91q-10 40 -24 65t-30 39.5t-33.5 20t-34.5 5.5q-26 0 -51 -12.5t-44 -36.5t-30.5 -60.5t-11.5 -84.5q0 -85 31 -131.5t88 -46.5z" />
    <glyph glyph-name="beta" unicode="&#x3b2;" horiz-adv-x="565" 
d="M79 -179v670q0 50 12 93t37 74t62.5 48.5t88.5 17.5q36 0 69 -10.5t58.5 -32t40.5 -54t15 -76.5q0 -54 -25 -95.5t-71 -70.5v-4q72 -10 113.5 -60.5t41.5 -127.5q0 -49 -16 -87t-42.5 -64.5t-60.5 -40t-71 -13.5q-46 0 -91 16t-83 58q2 -62 3 -120.5t2 -120.5h-83z
M312 57q26 0 49 9.5t40.5 27.5t27.5 44.5t10 59.5q0 58 -34 97t-102 39q-26 0 -50 -6l-13 63q39 8 66 24t44 37t24.5 45t7.5 48q0 28 -8 49t-22 35t-32.5 21t-38.5 7q-57 0 -88.5 -45t-32.5 -132q-2 -88 -2.5 -173.5t-0.5 -173.5q35 -45 76 -60.5t79 -15.5z" />
    <glyph glyph-name="gamma" unicode="&#x3b3;" horiz-adv-x="484" 
d="M196 -179q1 16 2 29.5l2 27t1 29v35.5q0 60 -16.5 133t-44 146.5t-62.5 140.5t-72 115l83 21q22 -32 46 -77t46 -98t39.5 -111t28.5 -115h4q47 91 83.5 189.5t44.5 199.5h83q-10 -62 -24.5 -117t-37 -111.5t-54.5 -118t-77 -134.5q6 -44 8 -93t2 -91h-85z" />
    <glyph glyph-name="delta" unicode="&#x3b4;" horiz-adv-x="531" 
d="M269 -12q-42 0 -81 15t-69 43.5t-48.5 69.5t-18.5 93q0 44 14.5 80.5t39.5 65t59.5 49t73.5 32.5q-26 19 -50.5 38.5t-43 41t-29.5 46t-11 53.5q0 22 9.5 41.5t29 34.5t49.5 24t71 9q89 0 209 -39l-20 -66q-63 23 -109 32t-81 9q-42 0 -61 -15t-19 -35t11.5 -37.5
t31.5 -35.5t46.5 -36.5t56.5 -40.5q31 -23 59 -47t49.5 -52.5t34 -63t12.5 -78.5q0 -52 -14.5 -94.5t-42 -73t-67.5 -47t-91 -16.5zM270 56q66 0 99.5 44.5t33.5 117.5q0 30 -8.5 55.5t-23 46.5t-34 39.5t-41.5 35.5q-77 -17 -120.5 -65t-43.5 -119q0 -36 11.5 -64.5
t30.5 -48.5t44 -31t52 -11z" />
    <glyph glyph-name="epsilon" unicode="&#x3b5;" horiz-adv-x="448" 
d="M251 -12q-45 0 -82.5 10t-65 29t-42.5 46t-15 61q0 53 29.5 81.5t71.5 39.5v4q-38 14 -57.5 44t-19.5 64q0 33 15 58t40.5 41t59 24t71.5 8q44 0 83.5 -14t73.5 -39l-33 -55q-29 21 -58.5 32t-63.5 11q-45 0 -75.5 -19t-30.5 -57q0 -33 26 -54t85 -21q14 0 28 0.5t33 2.5
v-64q-22 2 -40 2h-36q-120 0 -120 -82q0 -41 34.5 -64t97.5 -23q35 0 66.5 11t66.5 38l35 -55q-44 -34 -85 -47t-92 -13z" />
    <glyph glyph-name="zeta" unicode="&#x3b6;" horiz-adv-x="424" 
d="M360 -184l-66 27q26 32 37 50t11 38q0 11 -4.5 19.5t-17 15t-34 13t-55.5 13.5q-37 7 -70 22t-58 41t-40 66.5t-15 100.5q0 56 24.5 117t63.5 118.5t86.5 107.5t93.5 85h-51.5t-63.5 -1t-65.5 -2t-56.5 -2v67h330v-67h-5q-47 -33 -95 -83t-87 -107.5t-64 -117.5t-25 -111
q0 -43 10 -72.5t29 -48.5t46 -30t61 -17q35 -7 61 -15.5t43 -20.5t25 -29.5t8 -42.5q0 -23 -13 -57.5t-43 -76.5z" />
    <glyph glyph-name="eta" unicode="&#x3b7;" horiz-adv-x="541" 
d="M382 -179q3 120 4.5 245t1.5 231q0 69 -18 99.5t-61 30.5q-20 0 -37.5 -5.5t-34.5 -18.5t-34.5 -33.5t-38.5 -51.5v-318h-82v353q0 29 -1 62t-6 71h75l7 -101h3q38 57 78.5 85t94.5 28q71 0 101.5 -48t30.5 -142v-487h-83z" />
    <glyph glyph-name="theta" unicode="&#x3b8;" horiz-adv-x="522" 
d="M261 -12q-47 0 -84.5 22t-63.5 67.5t-40 115.5t-14 166q0 180 54 272.5t148 92.5t148 -92.5t54 -272.5q0 -96 -14 -166t-40 -115.5t-63.5 -67.5t-84.5 -22zM261 656q-25 0 -46 -15t-37 -47t-26 -82.5t-12 -121.5h242q-2 71 -12 121.5t-26 82.5t-37 47t-46 15zM261 56
q25 0 46.5 14t37.5 46.5t25.5 85t11.5 129.5h-242q1 -77 11 -129.5t26 -85t37.5 -46.5t46.5 -14z" />
    <glyph glyph-name="iota" unicode="&#x3b9;" horiz-adv-x="262" 
d="M175 -12q-51 0 -72 29.5t-21 83.5v385h83q-2 -99 -4 -201t-2 -190q0 -39 34 -39q12 0 30 6l11 -62q-11 -5 -25 -8.5t-34 -3.5z" />
    <glyph glyph-name="kappa" unicode="&#x3ba;" horiz-adv-x="494" 
d="M406 -8q-20 22 -41 50.5t-42 61t-41 67t-38 67.5q-11 -14 -22.5 -28.5t-22.5 -30.5q-22 -29 -30.5 -67.5t-9.5 -86.5v-25h-77v353q0 29 -1.5 65t-7.5 68h81q5 -20 7 -50.5t2 -62.5v-152h4q29 50 63 96t71.5 83t76.5 62.5t78 35.5l8 -78q-41 -13 -82.5 -43.5t-86.5 -79.5
q18 -36 42 -75.5t50 -79t54.5 -76t55.5 -66.5z" />
    <glyph glyph-name="lambda" unicode="&#x3bb;" horiz-adv-x="494" 
d="M103 -8l-87 8l211 497l-6 21q-20 67 -46.5 101.5t-68.5 34.5q-20 0 -34.5 -5t-28.5 -11l-20 68q17 8 38 13t54 5q72 0 114 -52.5t74 -157.5l184 -514h-87l-134 403h-4z" />
    <glyph glyph-name="uni03BC" unicode="&#x3bc;" horiz-adv-x="562" 
d="M82 -179v665h82v-297q0 -65 20.5 -97.5t68.5 -32.5q16 0 32 3.5t32 14t32 29t33 48.5v332h83q-2 -99 -4 -201t-2 -190q0 -20 10 -29.5t26 -9.5q12 0 29 6l11 -62q-11 -5 -24.5 -8.5t-33.5 -3.5q-42 0 -62.5 22.5t-25.5 71.5h-2q-26 -47 -60.5 -69.5t-74.5 -22.5
q-29 0 -53 9t-41 38q0 -36 0.5 -63.5t1.5 -51.5l2 -48t3 -53h-83z" />
    <glyph glyph-name="nu" unicode="&#x3bd;" horiz-adv-x="474" 
d="M193 0q-14 67 -33 132.5t-43 126.5t-52 116t-59 102l83 21q25 -39 49 -90t44.5 -106.5t36.5 -111.5t27 -105h4q45 94 78.5 198t42.5 203h83q-10 -63 -25.5 -123t-37.5 -119t-51 -119.5t-66 -124.5h-81z" />
    <glyph glyph-name="xi" unicode="&#x3be;" horiz-adv-x="431" 
d="M367 -184l-66 27q26 32 37 50t11 38q0 11 -5 19.5t-17.5 15.5t-34 13.5t-54.5 12.5q-39 7 -73 20.5t-60 35.5t-41 55.5t-15 81.5q0 36 12 67.5t32.5 56.5t47.5 43t57 27v4q-45 18 -73 54.5t-28 89.5q0 42 19 74t53 49h-36t-31.5 -1t-33 -2t-40.5 -2v67h388v-67h-114
q-24 0 -46 -8t-39 -23t-27 -37.5t-10 -51.5q0 -26 11 -48.5t29 -39t40 -25.5t44 -9q20 0 32.5 1t32.5 5v-70q-20 5 -35 5.5t-35 0.5q-31 0 -60.5 -10t-53 -29t-37.5 -47t-14 -63q0 -36 11.5 -60t32.5 -39t49.5 -24t62.5 -15q36 -7 61.5 -15.5t41.5 -20.5t23.5 -29.5
t7.5 -42.5q0 -23 -13.5 -57.5t-43.5 -76.5z" />
    <glyph glyph-name="omicron" unicode="&#x3bf;" horiz-adv-x="535" 
d="M267 -12q-45 0 -85.5 17t-70.5 49.5t-47.5 79.5t-17.5 108t17.5 109t47.5 80.5t70.5 49.5t85.5 17q46 0 86.5 -17t70.5 -49.5t47.5 -80.5t17.5 -109t-17.5 -108t-47.5 -79.5t-70.5 -49.5t-86.5 -17zM267 56q65 0 101 50.5t36 135.5t-36 136.5t-101 51.5t-100.5 -51.5
t-35.5 -136.5t35.5 -135.5t100.5 -50.5z" />
    <glyph glyph-name="pi" unicode="&#x3c0;" horiz-adv-x="586" 
d="M485 -12q-58 0 -82 31t-24 91q0 19 0.5 54.5t1.5 78.5t2 89t1 86h-172q0 -103 -9 -211.5t-20 -211.5l-83 5q17 103 26 211t9 207h-113v63l70 5h469v-68h-97q-2 -41 -3.5 -88.5t-2.5 -92t-1.5 -80t-0.5 -53.5q0 -26 11.5 -37t34.5 -11q12 0 39 6l11 -63q-13 -5 -29.5 -8
t-37.5 -3z" />
    <glyph glyph-name="rho" unicode="&#x3c1;" horiz-adv-x="549" 
d="M78 -179v427q0 63 17 110t46 78t68 46.5t83 15.5q103 0 156.5 -66t53.5 -182q0 -62 -17 -110.5t-45 -82.5t-64 -51.5t-74 -17.5q-39 0 -76 15t-71 54q1 -33 2 -61.5t1.5 -56.5t1.5 -57t1 -61h-83zM287 57q27 0 50.5 13.5t41.5 38t28 60.5t10 81q0 40 -7.5 73t-23 56.5
t-39.5 36.5t-58 13q-27 0 -51 -11.5t-42 -34t-28.5 -56.5t-10.5 -80v-124q34 -41 66 -53.5t64 -12.5z" />
    <glyph glyph-name="uni03C2" unicode="&#x3c2;" horiz-adv-x="432" 
d="M316 -180l-66 26q26 33 39.5 55t13.5 44q0 24 -14 40t-57 29q-34 12 -67.5 28.5t-59.5 43.5t-42.5 67.5t-16.5 100.5q0 58 17.5 103.5t47.5 77t69 47.5t83 16q49 0 82 -17t58 -40l-42 -54q-21 19 -42.5 31t-50.5 12q-30 0 -55.5 -12.5t-43.5 -35.5t-28 -55.5t-10 -72.5
q0 -43 11 -71.5t30 -48t44 -32t53 -21.5q30 -10 50.5 -20t33.5 -23.5t18.5 -31.5t5.5 -43q0 -26 -15 -63.5t-46 -79.5z" />
    <glyph glyph-name="sigma" unicode="&#x3c3;" horiz-adv-x="546" 
d="M264 -12q-44 0 -83.5 16.5t-69.5 48t-47.5 78.5t-17.5 107q0 64 18.5 110.5t49.5 77t71 45.5t83 15h266v-70q-42 3 -77 5t-77 3v-4q45 -26 70.5 -75t25.5 -118q0 -57 -16.5 -101t-45 -75t-67 -47t-83.5 -16zM265 56q28 0 52.5 12.5t41.5 35.5t27 56t10 74q0 36 -8.5 69.5
t-25 59t-41 40.5t-55.5 15q-58 0 -96.5 -44.5t-38.5 -135.5q0 -42 10 -75.5t28 -57.5t42.5 -36.5t53.5 -12.5z" />
    <glyph glyph-name="tau" unicode="&#x3c4;" horiz-adv-x="460" 
d="M288 -12q-56 0 -77.5 31t-21.5 91v309h-163v62l70 5h338v-67h-164q-2 -82 -3 -161.5t-1 -153.5q0 -26 10.5 -37t30.5 -11q11 0 23 2.5t24 5.5l12 -63q-14 -5 -34.5 -9t-43.5 -4z" />
    <glyph glyph-name="upsilon" unicode="&#x3c5;" horiz-adv-x="510" 
d="M249 -12q-88 0 -136.5 47.5t-48.5 144.5q0 44 2 86.5t2 86.5q0 29 -1.5 62t-6.5 71h80q5 -26 6.5 -53.5t1.5 -59.5q0 -21 -1 -45.5t-2 -51t-2 -52.5t-1 -48q0 -33 8.5 -55.5t23.5 -37t34.5 -21t41.5 -6.5q53 0 87.5 44.5t34.5 139.5q0 56 -8.5 114t-31.5 125l80 19
q21 -63 32 -126.5t11 -128.5q0 -62 -15 -109.5t-42 -80t-65 -49t-84 -16.5z" />
    <glyph glyph-name="phi" unicode="&#x3c6;" horiz-adv-x="680" 
d="M131 244q0 -44 13.5 -78.5t36.5 -58.5t54.5 -38t66.5 -15v378q-35 -2 -66.5 -15t-54.5 -37t-36.5 -58.5t-13.5 -77.5zM549 244q0 87 -47.5 136t-123.5 52v-378q36 1 67 15t54 38t36.5 58.5t13.5 78.5zM302 -179v170q-50 1 -96 18.5t-81.5 50t-57 78.5t-21.5 106
q0 59 21.5 105t57 78t81.5 49t96 19v127h76v-127q51 -2 97 -19t81.5 -49t56.5 -78t21 -105q0 -60 -21.5 -106t-57 -78.5t-82 -50t-95.5 -18.5v-170h-76z" />
    <glyph glyph-name="chi" unicode="&#x3c7;" horiz-adv-x="481" 
d="M92 -191l-83 12l193 342l-190 314l82 21l147 -260h4l125 248h87l-173 -321l204 -335l-80 -21l-163 287h-4z" />
    <glyph glyph-name="psi" unicode="&#x3c8;" horiz-adv-x="689" 
d="M304 -179v167q-62 1 -106.5 18.5t-73 48t-42.5 73.5t-14 95v130q0 29 -1 62t-6 71h80q4 -26 5 -53.5t1 -59.5q0 -20 -0.5 -42.5t-0.5 -43.5t-0.5 -39t-0.5 -30q0 -74 39 -118.5t120 -44.5v567h77v-567q81 3 124.5 53.5t43.5 154.5q0 27 -2 52.5t-6.5 51t-12 53
t-19.5 59.5l80 19q23 -61 33.5 -115t10.5 -117q0 -131 -66 -203t-186 -75v-167h-77z" />
    <glyph glyph-name="omega" unicode="&#x3c9;" horiz-adv-x="701" 
d="M220 -12q-36 0 -67 15t-53.5 45t-35.5 75.5t-13 105.5q0 78 26 145t64 124l75 -33q-21 -30 -37 -58.5t-27 -58.5t-16.5 -63t-5.5 -71q0 -76 26.5 -117t67.5 -41q18 0 34 6.5t28 21t19 37.5t7 57q0 30 -2 60.5t-6 69.5h90q-4 -39 -6 -69.5t-2 -60.5q0 -35 7 -58.5
t19 -37.5t28 -20t33 -6q41 0 67 41.5t26 129.5q0 37 -4.5 67.5t-14 58.5t-24 55.5t-35.5 58.5l74 31q20 -29 36 -58t27.5 -61.5t18 -68.5t6.5 -78q0 -123 -45.5 -183.5t-121.5 -60.5q-42 0 -77.5 21t-53.5 67h-4q-19 -46 -52.5 -67t-75.5 -21z" />
    <glyph glyph-name="iotadieresis" unicode="&#x3ca;" horiz-adv-x="262" 
d="M175 -12q-51 0 -72 29.5t-21 83.5v385h83q-2 -99 -4 -201t-2 -190q0 -39 34 -39q12 0 30 6l11 -62q-11 -5 -25 -8.5t-34 -3.5zM28 587q-22 0 -36 14.5t-14 35.5t14 35.5t36 14.5q21 0 35 -14.5t14 -35.5t-14 -35.5t-35 -14.5zM220 587q-21 0 -35 14.5t-14 35.5t14 35.5
t35 14.5q22 0 36 -14.5t14 -35.5t-14 -35.5t-36 -14.5z" />
    <glyph glyph-name="upsilondieresis" unicode="&#x3cb;" horiz-adv-x="510" 
d="M249 -12q-88 0 -136.5 47.5t-48.5 144.5q0 44 2 86.5t2 86.5q0 29 -1.5 62t-6.5 71h80q5 -26 6.5 -53.5t1.5 -59.5q0 -21 -1 -45.5t-2 -51t-2 -52.5t-1 -48q0 -33 8.5 -55.5t23.5 -37t34.5 -21t41.5 -6.5q53 0 87.5 44.5t34.5 139.5q0 56 -8.5 114t-31.5 125l80 19
q21 -63 32 -126.5t11 -128.5q0 -62 -15 -109.5t-42 -80t-65 -49t-84 -16.5zM148 587q-22 0 -36 14.5t-14 35.5t14 35.5t36 14.5q21 0 35 -14.5t14 -35.5t-14 -35.5t-35 -14.5zM340 587q-21 0 -35 14.5t-14 35.5t14 35.5t35 14.5q22 0 36 -14.5t14 -35.5t-14 -35.5t-36 -14.5
z" />
    <glyph glyph-name="omicrontonos" unicode="&#x3cc;" horiz-adv-x="535" 
d="M267 -12q-45 0 -85.5 17t-70.5 49.5t-47.5 79.5t-17.5 108t17.5 109t47.5 80.5t70.5 49.5t85.5 17q46 0 86.5 -17t70.5 -49.5t47.5 -80.5t17.5 -109t-17.5 -108t-47.5 -79.5t-70.5 -49.5t-86.5 -17zM267 56q65 0 101 50.5t36 135.5t-36 136.5t-101 51.5t-100.5 -51.5
t-35.5 -136.5t35.5 -135.5t100.5 -50.5zM235 569l43 201l85 -15l-71 -197z" />
    <glyph glyph-name="upsilontonos" unicode="&#x3cd;" horiz-adv-x="510" 
d="M249 -12q-88 0 -136.5 47.5t-48.5 144.5q0 44 2 86.5t2 86.5q0 29 -1.5 62t-6.5 71h80q5 -26 6.5 -53.5t1.5 -59.5q0 -21 -1 -45.5t-2 -51t-2 -52.5t-1 -48q0 -33 8.5 -55.5t23.5 -37t34.5 -21t41.5 -6.5q53 0 87.5 44.5t34.5 139.5q0 56 -8.5 114t-31.5 125l80 19
q21 -63 32 -126.5t11 -128.5q0 -62 -15 -109.5t-42 -80t-65 -49t-84 -16.5zM211 569l43 201l85 -15l-71 -197z" />
    <glyph glyph-name="omegatonos" unicode="&#x3ce;" horiz-adv-x="701" 
d="M220 -12q-36 0 -67 15t-53.5 45t-35.5 75.5t-13 105.5q0 78 26 145t64 124l75 -33q-21 -30 -37 -58.5t-27 -58.5t-16.5 -63t-5.5 -71q0 -76 26.5 -117t67.5 -41q18 0 34 6.5t28 21t19 37.5t7 57q0 30 -2 60.5t-6 69.5h90q-4 -39 -6 -69.5t-2 -60.5q0 -35 7 -58.5
t19 -37.5t28 -20t33 -6q41 0 67 41.5t26 129.5q0 37 -4.5 67.5t-14 58.5t-24 55.5t-35.5 58.5l74 31q20 -29 36 -58t27.5 -61.5t18 -68.5t6.5 -78q0 -123 -45.5 -183.5t-121.5 -60.5q-42 0 -77.5 21t-53.5 67h-4q-19 -46 -52.5 -67t-75.5 -21zM317 569l43 201l85 -15
l-71 -197z" />
    <glyph glyph-name="uni03D0" unicode="&#x3d0;" horiz-adv-x="560" 
d="M305 -12q-39 0 -79.5 12.5t-73 40.5t-53.5 73.5t-21 111.5v265q0 50 12 92.5t36 73t61 48t87 17.5q34 0 67 -10.5t58.5 -31.5t41 -53t15.5 -76q0 -54 -27.5 -96.5t-84.5 -69.5v-4q81 -8 126.5 -60.5t45.5 -131.5q0 -47 -16.5 -84.5t-45 -63.5t-67 -39.5t-82.5 -13.5z
M158 480q0 -32 -0.5 -59t-0.5 -51q61 12 103 29.5t68 39.5t37 48.5t11 56.5q0 57 -28.5 83.5t-68.5 26.5q-57 0 -88 -43.5t-33 -130.5zM303 60q57 0 94 36t37 98q0 28 -8 53.5t-25.5 45t-44 31t-63.5 11.5q-16 0 -47 -5.5t-90 -22.5v-69q0 -54 15 -88.5t37.5 -54.5t48 -27.5
t46.5 -7.5z" />
    <glyph glyph-name="uni03D1" unicode="&#x3d1;" horiz-adv-x="522" 
d="M145 541q0 -32 10.5 -62t37 -52t72.5 -31.5t117 0.5q-2 72 -13 121.5t-29.5 80.5t-43.5 44.5t-55 13.5q-42 0 -69 -31.5t-27 -83.5zM259 -12q-81 0 -126 45t-45 136q0 43 -1 69.5t-7 52.5h78q6 -17 6.5 -44.5t0.5 -67.5q0 -35 7.5 -58.5t20.5 -38t31 -20.5t38 -6
q25 0 46.5 12.5t37.5 44.5t25.5 87t10.5 141q-92 -12 -153 3.5t-97 46.5t-51 72t-15 79q0 40 13.5 73.5t37 57.5t54.5 37.5t67 13.5q112 0 168.5 -91t56.5 -271q0 -105 -14.5 -176.5t-41.5 -115.5t-64.5 -63t-83.5 -19z" />
    <glyph glyph-name="uni03D5" unicode="&#x3d5;" horiz-adv-x="680" 
d="M303 -179v170q-51 1 -97.5 17.5t-82 48t-56.5 78t-21 108.5q0 75 30.5 140t76.5 119l67 -48q-22 -26 -38.5 -51t-28 -51t-17.5 -55t-6 -63q0 -42 13 -74.5t36 -55.5t54.5 -35.5t69.5 -14.5v242q0 103 41.5 152.5t106.5 49.5q41 0 75 -17t58 -48.5t37 -76.5t13 -102
q0 -62 -21 -110t-56.5 -81.5t-81.5 -52t-97 -19.5q1 -43 2 -85.5t2 -84.5h-79zM376 299q0 -61 0.5 -122t1.5 -123q37 2 68 16t54 39t36 60.5t13 80.5q0 83 -29 131t-73 48q-30 0 -50.5 -31.5t-20.5 -98.5z" />
    <glyph glyph-name="uni03D7" unicode="&#x3d7;" horiz-adv-x="494" 
d="M362 -187l-96 8q39 41 74.5 85.5t64.5 87.5q-20 22 -41 50.5t-42 60.5t-41 66t-37 67q-11 -14 -22.5 -28.5t-22.5 -30.5q-22 -29 -30.5 -67.5t-9.5 -86.5v-25h-77v353q0 29 -1.5 65t-7.5 68h81q5 -20 7 -50.5t2 -62.5v-152h4q29 50 63 96t71.5 83t76.5 62.5t78 35.5
l8 -78q-41 -13 -82.5 -43.5t-86.5 -79.5q18 -36 42 -75.5t50 -79t54.5 -76t55.5 -66.5q-33 -53 -69.5 -102.5t-65.5 -84.5z" />
    <glyph glyph-name="uni03D9" unicode="&#x3d9;" horiz-adv-x="535" 
d="M267 54q65 0 101 51t36 137q0 85 -36 136.5t-101 51.5t-100.5 -51.5t-35.5 -136.5q0 -86 35.5 -137t100.5 -51zM230 -179v170q-39 6 -72.5 26t-58.5 51.5t-39 75.5t-14 98q0 61 17.5 109t47.5 80.5t70.5 49.5t85.5 17q46 0 86.5 -17t70.5 -49.5t47.5 -80.5t17.5 -109
q0 -54 -14 -97t-38 -74.5t-57 -51.5t-71 -27q1 -23 1.5 -43t1 -39.5t1 -41t0.5 -47.5h-83z" />
    <glyph glyph-name="uni03DB" unicode="&#x3db;" horiz-adv-x="466" 
d="M351 -184l-66 27q27 32 38 50.5t11 36.5q0 10 -3 19t-12.5 17t-27 15.5t-46.5 14.5q-40 10 -76 27.5t-63.5 46t-43.5 70t-16 98.5q0 64 18.5 110.5t51.5 77t77.5 45.5t95.5 15h151v-70q-29 2 -66.5 2h-78.5q-75 0 -119.5 -44.5t-44.5 -135.5q0 -40 11.5 -69t31.5 -49.5
t48.5 -34t62.5 -21.5q70 -17 96.5 -42.5t26.5 -71.5q0 -23 -14.5 -59.5t-42.5 -74.5z" />
    <glyph glyph-name="uni03DD" unicode="&#x3dd;" horiz-adv-x="413" 
d="M82 -179v665h305v-67h-228l2 -217h206v-59h-206q0 -81 1 -157.5t3 -164.5h-83z" />
    <glyph glyph-name="uni03E1" unicode="&#x3e1;" horiz-adv-x="498" 
d="M456 -179l-80 10q10 48 14 94t4 92q0 67 -10 126q-63 -29 -123.5 -57.5t-129.5 -63.5l-34 69l272 122q-15 63 -42 119q-69 -31 -135 -62t-141 -69l-34 69l278 125q-42 72 -100 131t-133 103l51 61q87 -53 154.5 -126t113 -160t69.5 -185.5t24 -202.5q0 -51 -4 -98.5
t-14 -96.5z" />
    <glyph glyph-name="uni0400" unicode="&#x400;" horiz-adv-x="527" 
d="M90 0v656h378v-70h-295v-206h249v-71h-249v-238h305v-71h-388zM301 697l-152 115l47 55l142 -128z" />
    <glyph glyph-name="uni0401" unicode="&#x401;" horiz-adv-x="527" 
d="M90 0v656h378v-70h-295v-206h249v-71h-249v-238h305v-71h-388zM181 715q-21 0 -35 14t-14 35q0 22 14 35.5t35 13.5q22 0 35.5 -13.5t13.5 -35.5q0 -21 -13.5 -35t-35.5 -14zM387 715q-22 0 -35.5 14t-13.5 35q0 22 13.5 35.5t35.5 13.5q21 0 35 -13.5t14 -35.5
q0 -21 -14 -35t-35 -14z" />
    <glyph glyph-name="uni0402" unicode="&#x402;" horiz-adv-x="687" 
d="M458 -12q-17 0 -35 3t-29 7l15 67q7 -3 18 -5.5t21 -2.5q18 0 37 7t34.5 22.5t25.5 41t10 63.5q0 74 -42 107.5t-119 33.5q-29 0 -56 -2.5t-48 -7.5v-322h-84v586h-178v70h491v-70h-229v-195q24 5 52.5 7.5t62.5 2.5q50 0 92.5 -12t74 -37t49 -65t17.5 -95q0 -57 -15 -96
t-40.5 -63t-58 -34.5t-66.5 -10.5z" />
    <glyph glyph-name="uni0403" unicode="&#x403;" horiz-adv-x="498" 
d="M90 0v656h378v-70h-295v-586h-83zM273 697l-37 42l142 128l47 -55z" />
    <glyph glyph-name="uni0404" unicode="&#x404;" horiz-adv-x="571" 
d="M338 -12q-63 0 -115.5 22t-90.5 64.5t-59 106t-21 147.5q0 83 21.5 146.5t60 106.5t91.5 65t117 22q60 0 106 -24.5t75 -56.5l-45 -54q-26 28 -59.5 45t-75.5 17q-88 0 -142 -55t-65 -160h275v-71h-276q5 -125 58.5 -186.5t147.5 -61.5q48 0 84 19.5t68 54.5l46 -52
q-39 -45 -88 -70t-113 -25z" />
    <glyph glyph-name="uni0405" unicode="&#x405;" horiz-adv-x="534" 
d="M272 -12q-69 0 -128 26t-102 71l50 58q35 -37 82.5 -59.5t98.5 -22.5q65 0 101 29.5t36 77.5q0 25 -8.5 42.5t-23 30t-34.5 22.5t-43 21l-94 41q-23 10 -47 24t-43 34t-31 47.5t-12 63.5q0 37 15.5 69t43 55.5t65 36.5t82.5 13q59 0 109 -22.5t85 -58.5l-45 -54
q-30 29 -66.5 45.5t-82.5 16.5q-55 0 -88.5 -25.5t-33.5 -70.5q0 -24 9.5 -40.5t25.5 -29t35 -22t39 -17.5l93 -40q28 -12 53 -27.5t43 -36t28.5 -48t10.5 -63.5q0 -39 -15.5 -73t-44.5 -59.5t-70 -40t-93 -14.5z" />
    <glyph glyph-name="uni0406" unicode="&#x406;" horiz-adv-x="263" 
d="M90 0v656h83v-656h-83z" />
    <glyph glyph-name="uni0407" unicode="&#x407;" horiz-adv-x="263" 
d="M90 0v656h83v-656h-83zM28 715q-21 0 -35 14t-14 35q0 22 14 35.5t35 13.5q22 0 35.5 -13.5t13.5 -35.5q0 -21 -13.5 -35t-35.5 -14zM234 715q-22 0 -35.5 14t-13.5 35q0 22 13.5 35.5t35.5 13.5q21 0 35 -13.5t14 -35.5q0 -21 -14 -35t-35 -14z" />
    <glyph glyph-name="uni0408" unicode="&#x408;" horiz-adv-x="480" 
d="M212 -12q-123 0 -181 105l60 42q22 -39 50 -56.5t63 -17.5q53 0 79 32.5t26 107.5v455h84v-463q0 -42 -10.5 -79.5t-32 -65.5t-56 -44t-82.5 -16z" />
    <glyph glyph-name="uni0409" unicode="&#x409;" horiz-adv-x="903" 
d="M62 -12q-16 0 -29 2t-27 7l17 77q13 -6 28 -6q13 0 24.5 5.5t22.5 24t22 53.5t23 93q20 103 38 203t37 209h308v-269h91q54 0 98.5 -10.5t76.5 -33t49.5 -57.5t17.5 -84q0 -53 -17 -91t-48.5 -62.5t-76 -36.5t-99.5 -12h-175v586h-160q-16 -91 -30.5 -177.5t-30.5 -174.5
q-14 -75 -30 -123t-35 -75.5t-42 -37.5t-53 -10zM526 68h81q84 0 127 31t43 101q0 63 -43 91.5t-129 28.5h-79v-252z" />
    <glyph glyph-name="uni040A" unicode="&#x40a;" horiz-adv-x="929" 
d="M90 0v656h83v-275h295v275h84v-269h91q54 0 98.5 -10.5t76.5 -33t49.5 -57.5t17.5 -84q0 -53 -17 -91t-48.5 -62.5t-76 -36.5t-99.5 -12h-176v309h-295v-309h-83zM552 68h81q84 0 127 31t43 101q0 63 -43 91.5t-129 28.5h-79v-252z" />
    <glyph glyph-name="uni040B" unicode="&#x40b;" horiz-adv-x="696" 
d="M206 0v586h-178v70h491v-70h-229v-195q24 5 53 7.5t58 2.5q53 0 95.5 -11.5t72 -36.5t45 -64t15.5 -94v-195h-82v195q0 74 -38 105.5t-116 31.5q-26 0 -54 -2.5t-49 -7.5v-322h-84z" />
    <glyph glyph-name="uni040C" unicode="&#x40c;" horiz-adv-x="580" 
d="M90 0v656h83v-277h113l92 167q21 37 38 61t34.5 37.5t35.5 18.5t40 5q9 0 18.5 -1.5t17.5 -4.5l-14 -78q-6 2 -12.5 3t-11.5 1q-11 0 -20 -3t-18.5 -12t-20.5 -25t-26 -43l-87 -155l226 -350h-91l-202 311h-112v-311h-83zM307 701l-37 42l142 128l47 -55z" />
    <glyph glyph-name="uni040D" unicode="&#x40d;" horiz-adv-x="656" 
d="M90 0v656h82v-339q0 -52 -3.5 -105.5t-6.5 -103.5h4l71 134l241 414h88v-656h-82v343q0 52 3.5 103.5t6.5 101.5h-4l-71 -134l-241 -414h-88zM349 701l-152 115l47 55l142 -128z" />
    <glyph glyph-name="uni040E" unicode="&#x40e;" horiz-adv-x="514" 
d="M136 -12q-22 0 -36.5 2.5t-28.5 7.5l17 75q8 -3 18 -5t24 -2q32 0 51.5 12.5t33.5 40.5l14 35l-224 502h89l122 -292l50 -129h4l46 129l113 292h85l-215 -537q-25 -61 -62.5 -96t-100.5 -35zM257 705q-42 0 -70 11t-45.5 29.5t-26 42.5t-9.5 49h72q1 -35 19 -60.5
t60 -25.5q21 0 35.5 7t24 18.5t14 27t5.5 33.5h72q-2 -25 -10 -49t-25.5 -42.5t-45.5 -29.5t-70 -11z" />
    <glyph glyph-name="uni040F" unicode="&#x40f;" horiz-adv-x="645" 
d="M90 0v656h83v-585h299v585h83v-656h-187l-8 -188h-73v188h-197z" />
    <glyph glyph-name="uni0410" unicode="&#x410;" horiz-adv-x="544" 
d="M203 367l-31 -100h197l-31 100q-18 55 -34 109.5t-32 111.5h-4q-15 -57 -31 -111.5t-34 -109.5zM3 0l222 656h94l222 -656h-89l-62 200h-239l-63 -200h-85z" />
    <glyph glyph-name="uni0411" unicode="&#x411;" horiz-adv-x="580" 
d="M90 0v656h405v-70h-322v-206h126q52 0 96 -10t76 -31.5t50 -56t18 -83.5q0 -103 -64 -151t-172 -48h-213zM173 66h116q85 0 126.5 31.5t41.5 99.5q0 63 -42.5 91t-127.5 28h-114v-250z" />
    <glyph glyph-name="uni0412" unicode="&#x412;" horiz-adv-x="588" 
d="M90 0v656h195q50 0 91.5 -9t71 -28t46 -49.5t16.5 -73.5q0 -49 -24.5 -88.5t-71.5 -54.5v-4q60 -11 97 -50t37 -107q0 -48 -18 -84t-51 -60t-79 -36t-101 -12h-209zM173 377h97q84 0 121 29t37 79q0 57 -38.5 81t-115.5 24h-101v-213zM173 66h114q85 0 132 31.5t47 97.5
q0 61 -46 89.5t-133 28.5h-114v-247z" />
    <glyph glyph-name="uni0413" unicode="&#x413;" horiz-adv-x="498" 
d="M90 0v656h378v-70h-295v-586h-83z" />
    <glyph glyph-name="uni0414" unicode="&#x414;" horiz-adv-x="638" 
d="M108 0v-188h-73l-9 209v50h30q10 4 21 17t22.5 40t23.5 70.5t24 108.5q9 49 16.5 90t14 81t13.5 82.5t16 95.5h332v-585h73v-50l-9 -209h-73v188h-422zM223 293q-16 -84 -33.5 -137.5t-39.5 -84.5h305v515h-183q-8 -42 -13.5 -77.5t-11 -69.5t-11.5 -69t-13 -77z" />
    <glyph glyph-name="uni0415" unicode="&#x415;" horiz-adv-x="527" 
d="M90 0v656h378v-70h-295v-206h249v-71h-249v-238h305v-71h-388z" />
    <glyph glyph-name="uni0416" unicode="&#x416;" horiz-adv-x="805" 
d="M6 0l200 350l-69 155q-13 27 -24 43.5t-21 25.5t-20 11.5t-21 2.5q-5 0 -11.5 -1t-12.5 -3l-14 78q8 3 17.5 4.5t18.5 1.5q22 0 41 -5t37 -18.5t35 -37.5t35 -61l77 -167h89v277h79v-277h88l78 167q18 37 35 61t35 37.5t37 18.5t41 5q9 0 18.5 -1.5t17.5 -4.5l-14 -78
q-7 2 -13 3t-11 1q-11 0 -21 -2.5t-20 -11.5t-21 -25.5t-24 -43.5l-69 -155l199 -350h-91l-170 311h-95v-311h-79v311h-95l-170 -311h-92z" />
    <glyph glyph-name="uni0417" unicode="&#x417;" horiz-adv-x="554" 
d="M278 -12q-72 0 -129 22.5t-107 73.5l47 57q43 -44 87 -62t101 -18q32 0 60 8.5t49 25t33.5 40.5t12.5 55q0 63 -46 93t-131 30h-74v64h54q87 0 125 28.5t38 84.5q0 52 -36.5 78.5t-91.5 26.5q-46 0 -85 -16.5t-69 -44.5l-45 56q35 35 88 56.5t113 21.5q46 0 84.5 -11.5
t66 -33t42.5 -53t15 -70.5q0 -52 -25 -91.5t-73 -56.5v-4q57 -11 94.5 -52.5t37.5 -109.5q0 -47 -18.5 -84t-50.5 -62.5t-75 -38.5t-92 -13z" />
    <glyph glyph-name="uni0418" unicode="&#x418;" horiz-adv-x="656" 
d="M90 0v656h82v-339q0 -52 -3.5 -105.5t-6.5 -103.5h4l71 134l241 414h88v-656h-82v343q0 52 3.5 103.5t6.5 101.5h-4l-71 -134l-241 -414h-88z" />
    <glyph glyph-name="uni0419" unicode="&#x419;" horiz-adv-x="656" 
d="M90 0v656h82v-339q0 -52 -3.5 -105.5t-6.5 -103.5h4l71 134l241 414h88v-656h-82v343q0 52 3.5 103.5t6.5 101.5h-4l-71 -134l-241 -414h-88zM332 709q-42 0 -70 11t-45.5 29.5t-26 42.5t-9.5 49h72q1 -35 19 -60.5t60 -25.5q21 0 35.5 7t24 18.5t14 27t5.5 33.5h72
q-2 -25 -10 -49t-25.5 -42.5t-45.5 -29.5t-70 -11z" />
    <glyph glyph-name="uni041A" unicode="&#x41a;" horiz-adv-x="580" 
d="M90 0v656h83v-277h113l92 167q21 37 38 61t34.5 37.5t35.5 18.5t40 5q9 0 18.5 -1.5t17.5 -4.5l-14 -78q-6 2 -12.5 3t-11.5 1q-11 0 -20 -3t-18.5 -12t-20.5 -25t-26 -43l-87 -155l226 -350h-91l-202 311h-112v-311h-83z" />
    </font>
</defs>
</svg>
